  0
SECTION
  2
HEADER
  9
$ACADVER
  1
AC1015
  9
$ACADMAINTVER
 70
    20
  9
$DWGCODEPAGE
  3
ANSI_1252
  9
$INSBASE
 10
0.0
 20
0.0
 30
0.0
  9
$EXTMIN
 10
50.19488669535485
 20
12.67639259420855
 30
-0.0015258207003583
  9
$EXTMAX
 10
557.5366529518933
 20
403.734742169891
 30
0.0000000349246037
  9
$LIMMIN
 10
0.0
 20
0.0
  9
$LIMMAX
 10
594.0
 20
420.0
  9
$ORTHOMODE
 70
     0
  9
$REGENMODE
 70
     1
  9
$FILLMODE
 70
     1
  9
$QTEXTMODE
 70
     0
  9
$MIRRTEXT
 70
     0
  9
$LTSCALE
 40
1.0
  9
$ATTMODE
 70
     1
  9
$TEXTSIZE
 40
0.2
  9
$TRACEWID
 40
0.05
  9
$TEXTSTYLE
  7
Standard
  9
$CLAYER
  8
0
  9
$CELTYPE
  6
ByLayer
  9
$CECOLOR
 62
   256
  9
$CELTSCALE
 40
1.0
  9
$DISPSILH
 70
     0
  9
$DIMSCALE
 40
1.0
  9
$DIMASZ
 40
1.799999999999999
  9
$DIMEXO
 40
0.0625
  9
$DIMDLI
 40
0.38
  9
$DIMRND
 40
0.0
  9
$DIMDLE
 40
0.0
  9
$DIMEXE
 40
0.18
  9
$DIMTP
 40
0.0
  9
$DIMTM
 40
0.0
  9
$DIMTXT
 40
0.3499999940395355
  9
$DIMCEN
 40
0.09
  9
$DIMTSZ
 40
0.0
  9
$DIMTOL
 70
     0
  9
$DIMLIM
 70
     0
  9
$DIMTIH
 70
     1
  9
$DIMTOH
 70
     1
  9
$DIMSE1
 70
     0
  9
$DIMSE2
 70
     0
  9
$DIMTAD
 70
     0
  9
$DIMZIN
 70
     0
  9
$DIMBLK
  1

  9
$DIMASO
 70
     1
  9
$DIMSHO
 70
     1
  9
$DIMPOST
  1

  9
$DIMAPOST
  1

  9
$DIMALT
 70
     0
  9
$DIMALTD
 70
     2
  9
$DIMALTF
 40
25.4
  9
$DIMLFAC
 40
1.0
  9
$DIMTOFL
 70
     0
  9
$DIMTVP
 40
0.0
  9
$DIMTIX
 70
     0
  9
$DIMSOXD
 70
     0
  9
$DIMSAH
 70
     0
  9
$DIMBLK1
  1

  9
$DIMBLK2
  1

  9
$DIMSTYLE
  2
Standard
  9
$DIMCLRD
 70
     0
  9
$DIMCLRE
 70
     0
  9
$DIMCLRT
 70
     0
  9
$DIMTFAC
 40
1.0
  9
$DIMGAP
 40
0.09
  9
$DIMJUST
 70
     0
  9
$DIMSD1
 70
     0
  9
$DIMSD2
 70
     0
  9
$DIMTOLJ
 70
     1
  9
$DIMTZIN
 70
     0
  9
$DIMALTZ
 70
     0
  9
$DIMALTTZ
 70
     0
  9
$DIMUPT
 70
     0
  9
$DIMDEC
 70
     4
  9
$DIMTDEC
 70
     4
  9
$DIMALTU
 70
     2
  9
$DIMALTTD
 70
     2
  9
$DIMTXSTY
  7
Standard
  9
$DIMAUNIT
 70
     0
  9
$DIMADEC
 70
     0
  9
$DIMALTRND
 40
0.0
  9
$DIMAZIN
 70
     0
  9
$DIMDSEP
 70
    46
  9
$DIMATFIT
 70
     3
  9
$DIMFRAC
 70
     0
  9
$DIMLDRBLK
  1

  9
$DIMLUNIT
 70
     2
  9
$DIMLWD
 70
    -2
  9
$DIMLWE
 70
    -2
  9
$DIMTMOVE
 70
     0
  9
$LUNITS
 70
     2
  9
$LUPREC
 70
     4
  9
$SKETCHINC
 40
0.1
  9
$FILLETRAD
 40
0.0
  9
$AUNITS
 70
     0
  9
$AUPREC
 70
     0
  9
$MENU
  1
.
  9
$ELEVATION
 40
0.0
  9
$PELEVATION
 40
0.0
  9
$THICKNESS
 40
0.0
  9
$LIMCHECK
 70
     0
  9
$CHAMFERA
 40
0.0
  9
$CHAMFERB
 40
0.0
  9
$CHAMFERC
 40
0.0
  9
$CHAMFERD
 40
0.0
  9
$SKPOLY
 70
     0
  9
$TDCREATE
 40
2456041.392414537
  9
$TDUCREATE
 40
2456041.309081204
  9
$TDUPDATE
 40
2456041.393482280
  9
$TDUUPDATE
 40
2456041.310148947
  9
$TDINDWG
 40
0.0005859491
  9
$TDUSRTIMER
 40
0.0005859491
  9
$USRTIMER
 70
     1
  9
$ANGBASE
 50
0.0
  9
$ANGDIR
 70
     0
  9
$PDMODE
 70
     0
  9
$PDSIZE
 40
0.0
  9
$PLINEWID
 40
0.0
  9
$SPLFRAME
 70
     0
  9
$SPLINETYPE
 70
     6
  9
$SPLINESEGS
 70
     8
  9
$HANDSEED
  5
1DD1
  9
$SURFTAB1
 70
     6
  9
$SURFTAB2
 70
     6
  9
$SURFTYPE
 70
     6
  9
$SURFU
 70
     6
  9
$SURFV
 70
     6
  9
$UCSBASE
  2

  9
$UCSNAME
  2

  9
$UCSORG
 10
0.0
 20
0.0
 30
0.0
  9
$UCSXDIR
 10
1.0
 20
0.0
 30
0.0
  9
$UCSYDIR
 10
0.0
 20
1.0
 30
0.0
  9
$UCSORTHOREF
  2

  9
$UCSORTHOVIEW
 70
     0
  9
$UCSORGTOP
 10
0.0
 20
0.0
 30
0.0
  9
$UCSORGBOTTOM
 10
0.0
 20
0.0
 30
0.0
  9
$UCSORGLEFT
 10
0.0
 20
0.0
 30
0.0
  9
$UCSORGRIGHT
 10
0.0
 20
0.0
 30
0.0
  9
$UCSORGFRONT
 10
0.0
 20
0.0
 30
0.0
  9
$UCSORGBACK
 10
0.0
 20
0.0
 30
0.0
  9
$PUCSBASE
  2

  9
$PUCSNAME
  2

  9
$PUCSORG
 10
0.0
 20
0.0
 30
0.0
  9
$PUCSXDIR
 10
1.0
 20
0.0
 30
0.0
  9
$PUCSYDIR
 10
0.0
 20
1.0
 30
0.0
  9
$PUCSORTHOREF
  2

  9
$PUCSORTHOVIEW
 70
     0
  9
$PUCSORGTOP
 10
0.0
 20
0.0
 30
0.0
  9
$PUCSORGBOTTOM
 10
0.0
 20
0.0
 30
0.0
  9
$PUCSORGLEFT
 10
0.0
 20
0.0
 30
0.0
  9
$PUCSORGRIGHT
 10
0.0
 20
0.0
 30
0.0
  9
$PUCSORGFRONT
 10
0.0
 20
0.0
 30
0.0
  9
$PUCSORGBACK
 10
0.0
 20
0.0
 30
0.0
  9
$USERI1
 70
     0
  9
$USERI2
 70
     0
  9
$USERI3
 70
     0
  9
$USERI4
 70
     0
  9
$USERI5
 70
     0
  9
$USERR1
 40
0.0
  9
$USERR2
 40
0.0
  9
$USERR3
 40
0.0
  9
$USERR4
 40
0.0
  9
$USERR5
 40
0.0
  9
$WORLDVIEW
 70
     1
  9
$SHADEDGE
 70
     3
  9
$SHADEDIF
 70
    70
  9
$TILEMODE
 70
     1
  9
$MAXACTVP
 70
    64
  9
$PINSBASE
 10
0.0
 20
0.0
 30
0.0
  9
$PLIMCHECK
 70
     0
  9
$PEXTMIN
 10
0.0
 20
0.0
 30
0.0
  9
$PEXTMAX
 10
594.0
 20
420.0
 30
0.0
  9
$PLIMMIN
 10
0.0
 20
0.0
  9
$PLIMMAX
 10
594.0
 20
420.0
  9
$UNITMODE
 70
     0
  9
$VISRETAIN
 70
     1
  9
$PLINEGEN
 70
     0
  9
$PSLTSCALE
 70
     1
  9
$TREEDEPTH
 70
  3020
  9
$CMLSTYLE
  2
Standard
  9
$CMLJUST
 70
     0
  9
$CMLSCALE
 40
1.0
  9
$PROXYGRAPHICS
 70
     1
  9
$MEASUREMENT
 70
     1
  9
$CELWEIGHT
370
    -1
  9
$ENDCAPS
280
     0
  9
$JOINSTYLE
280
     0
  9
$LWDISPLAY
290
     0
  9
$INSUNITS
 70
     4
  9
$HYPERLINKBASE
  1

  9
$STYLESHEET
  1

  9
$XEDIT
290
     1
  9
$CEPSNTYPE
380
     0
  9
$PSTYLEMODE
290
     1
  9
$FINGERPRINTGUID
  2
{5DEF1BC1-B394-444F-BE2E-D81909742953}
  9
$VERSIONGUID
  2
{D4D0B43C-B9F5-4D40-A0F2-7BB2055D060A}
  9
$EXTNAMES
290
     1
  9
$PSVPSCALE
 40
0.0
  9
$OLESTARTUP
290
     0
  0
ENDSEC
  0
SECTION
  2
CLASSES
  0
CLASS
  1
ACDBDICTIONARYWDFLT
  2
AcDbDictionaryWithDefault
  3
ObjectDBX Classes
 90
        0
280
     0
281
     0
  0
CLASS
  1
MATERIAL
  2
AcDbMaterial
  3
ObjectDBX Classes
 90
     1153
280
     0
281
     0
  0
CLASS
  1
VISUALSTYLE
  2
AcDbVisualStyle
  3
ObjectDBX Classes
 90
     4095
280
     0
281
     0
  0
CLASS
  1
SCALE
  2
AcDbScale
  3
ObjectDBX Classes
 90
     1153
280
     0
281
     0
  0
CLASS
  1
TABLESTYLE
  2
AcDbTableStyle
  3
ObjectDBX Classes
 90
     4095
280
     0
281
     0
  0
CLASS
  1
MLEADERSTYLE
  2
AcDbMLeaderStyle
  3
ACDB_MLEADERSTYLE_CLASS
 90
     4095
280
     0
281
     0
  0
CLASS
  1
CELLSTYLEMAP
  2
AcDbCellStyleMap
  3
ObjectDBX Classes
 90
     1152
280
     0
281
     0
  0
CLASS
  1
DICTIONARYVAR
  2
AcDbDictionaryVar
  3
ObjectDBX Classes
 90
        0
280
     0
281
     0
  0
CLASS
  1
ACDBPLACEHOLDER
  2
AcDbPlaceHolder
  3
ObjectDBX Classes
 90
        0
280
     0
281
     0
  0
CLASS
  1
LAYOUT
  2
AcDbLayout
  3
ObjectDBX Classes
 90
        0
280
     0
281
     0
  0
CLASS
  1
ACME_DOCUMENT
  2
AcMeDbDoc
  3
AcMeServices
 90
     1024
280
     0
281
     0
  0
CLASS
  1
AMGSETTINGSOBJ
  2
AmgSettingsObj
  3
"AcadM|Product Description: AutoCAD Mechanical|Company: Autodesk, Inc."
 90
     1024
280
     0
281
     0
  0
CLASS
  1
ACMESCOPE
  2
AcMeScope
  3
AcMeServices
 90
     1024
280
     0
281
     0
  0
CLASS
  1
ACMECOMMANDHISTORY
  2
AcMeCommandHistory
  3
AcMeServices
 90
     1024
280
     0
281
     0
  0
CLASS
  1
ACIMSYSVARMAN
  2
AcImSysVarManager
  3
AcMeServices
 90
     1024
280
     0
281
     0
  0
CLASS
  1
ACIMINTSYSVAR
  2
AcImIntSysVar
  3
AcMeServices
 90
     1024
280
     0
281
     0
  0
CLASS
  1
ACMEDRAWINGMAN
  2
AcMeDrawingMan
  3
AcMeServices
 90
     1024
280
     0
281
     0
  0
CLASS
  1
ACMEVIEW
  2
AcMeView
  3
AcMeServices
 90
     1024
280
     0
281
     0
  0
CLASS
  1
ACDBENTITYCACHE
  2
AcMeEntityCache
  3
AcMeServices
 90
     1024
280
     0
281
     0
  0
CLASS
  1
ACMESTATEMGR
  2
AcMeStateMgr
  3
AcMeServices
 90
     1024
280
     0
281
     0
  0
CLASS
  1
ACGREFMASTER
  2
AcGrefMaster
  3
AcAttribServices
 90
     1024
280
     0
281
     0
  0
CLASS
  1
AM_DRAWING_MGR
  2
AcDmDwgMgr
  3
AcMechDwgViewMgmt
 90
     1024
280
     0
281
     0
  0
CLASS
  1
AM_DWG_DOCUMENT
  2
AcDmDwgDocument
  3
AcMechDwgViewMgmt
 90
     1024
280
     0
281
     0
  0
CLASS
  1
AM_DWG_SHEET
  2
AcDmSheet
  3
AcMechDwgViewMgmt
 90
     1024
280
     0
281
     0
  0
CLASS
  1
AM_VIEWDIMPARMAP
  2
AcDmViewDimParMap
  3
AcMechDwgViewMgmt
 90
     1024
280
     0
281
     0
  0
CLASS
  1
AMDTINTERNALREACTOR
  2
AmdtInternalReactor
  3
AcMeServices
 90
     1024
280
     0
281
     0
  0
CLASS
  1
ACIMREALSYSVAR
  2
AcImRealSysVar
  3
AcMeServices
 90
     1024
280
     0
281
     0
  0
CLASS
  1
AM_DWGMGR_NAME
  2
AcDmDwgMgrName
  3
AcMechDwgViewMgmt
 90
     1024
280
     0
281
     0
  0
CLASS
  1
ACME_DATABASE
  2
AcMeDbDatabase
  3
AcMeServices
 90
     1024
280
     0
281
     0
  0
CLASS
  1
ACRFINSADJUSTERMGR
  2
AcRfInsAdjusterMgr
  3
AcMeServices
 90
     1024
280
     0
281
     0
  0
CLASS
  1
ACGREFACADMASTER
  2
AcGrefacadMaster
  3
AcGrefServices
 90
     1024
280
     0
281
     0
  0
CLASS
  1
AMDTMENUSTATEMGR
  2
AmdtMenuStateMgr
  3
McadcomServices
 90
     1024
280
     0
281
     0
  0
CLASS
  1
AMDTMCOMMENUSTATE
  2
AmdtMcomMenuState
  3
McadcomServices
 90
     1024
280
     0
281
     0
  0
CLASS
  1
AMIMASTER
  2
AmiMaster
  3
AmiServices
 90
     1024
280
     0
281
     0
  0
CLASS
  1
MAPIAMMOUDLE
  2
MApiAmModule
  3
MApiAmServices
 90
     1024
280
     0
281
     0
  0
CLASS
  1
ACIMSTRSYSVAR
  2
AcImStrSysVar
  3
AcMeServices
 90
     1024
280
     0
281
     0
  0
CLASS
  1
AMDTADMENUSTATE
  2
AmdtAdMenuState
  3
DesignerServices
 90
     1024
280
     0
281
     0
  0
CLASS
  1
ADAPPL
  2
AcAdAppl
  3
DesignerServices
 90
     1024
280
     0
281
     0
  0
CLASS
  1
DEPMGR
  2
AcAdDepMgr
  3
DesignerServices
 90
     1024
280
     0
281
     0
  0
CLASS
  1
PARAMMGR
  2
AcAdParamMgr
  3
DesignerServices
 90
     1024
280
     0
281
     0
  0
CLASS
  1
PARAMSCOPE
  2
AcAdParamScope
  3
DesignerServices
 90
     1024
280
     0
281
     0
  0
CLASS
  1
NAMEDAPPL
  2
AcAdNamedAppl
  3
DesignerServices
 90
     1024
280
     0
281
     0
  0
CLASS
  1
AMDTDMMENUSTATE
  2
AmdtDmMenuState
  3
AcMechDwgViewMgmt
 90
     1024
280
     0
281
     0
  0
CLASS
  1
AMDTAMMENUSTATE
  2
AmdtAmMenuState
  3
DesignerAssemblies
 90
     1024
280
     0
281
     0
  0
CLASS
  1
ACAMPROJECT
  2
AcAmProject
  3
DesignerAssemblies
 90
     1024
280
     0
281
     0
  0
CLASS
  1
ACAMGRCOMPDEF
  2
AcAmGrCompDef
  3
DesignerAssemblies
 90
     1024
280
     0
281
     0
  0
CLASS
  1
ACAMCOMPDEF
  2
AcAmCompDef
  3
DesignerAssemblies
 90
     1024
280
     0
281
     0
  0
CLASS
  1
ACAMCOMPDEFMGR
  2
AcAmCompDefMgr
  3
DesignerAssemblies
 90
     1024
280
     0
281
     0
  0
CLASS
  1
AMCONTEXTMGR
  2
AcAmContextMgr
  3
DesignerAssemblies
 90
     1024
280
     0
281
     0
  0
CLASS
  1
ACAMCONTEXTMODELER
  2
AcAmContextModeler
  3
DesignerAssemblies
 90
     1024
280
     0
281
     0
  0
CLASS
  1
ACMDATADICTIONARY
  2
AcmDataDictionary
  3
"AcmSymBB|Product Description: AutoCAD Mechanical|Company: Autodesk, Inc."
 90
     1024
280
     0
281
     0
  0
CLASS
  1
CATALOGSTATE
  2
AcAmCatalogState
  3
DesignerAssemblies
 90
     1024
280
     0
281
     0
  0
CLASS
  1
ACAMGRCOMPDEFSET
  2
AcAmGrCompDefSet
  3
DesignerAssemblies
 90
     1024
280
     0
281
     0
  0
CLASS
  1
AMDTBROWSERDBTAB
  2
AmdtBrowserDbTab
  3
McadcomServices
 90
     1024
280
     0
281
     0
  0
CLASS
  1
CBROWSERAPPOBJECT
  2
CBrowserAppObject
  3
McadcomServices
 90
     1024
280
     0
281
     0
  0
CLASS
  1
DM_PLACEHOLDER
  2
AcDmSelsetPlaceholder
  3
AcMechDwgViewMgmt
 90
     1024
280
     0
281
     0
  0
CLASS
  1
EXACXREFPANELOBJECT
  2
ExAcXREFPanelObject
  3
EXAC_ESW
 90
     1025
280
     0
281
     0
  0
CLASS
  1
NPOCOLLECTION
  2
AcDbImpNonPersistentObjectsCollection
  3
ObjectDBX Classes
 90
     1153
280
     0
281
     0
  0
CLASS
  1
ACMSTANDARDISO
  2
AcmStandardISO
  3
"Amdt_StdImp|Product Description: AutoCAD Mechanical|Company: Autodesk, Inc."
 90
     1024
280
     0
281
     0
  0
CLASS
  1
AMDTEDGESTANDARDISO13715
  2
AmdtEdgeStdISO13715
  3
"Amdt_StdImp|Product Description: AutoCAD Mechanical|Company: Autodesk, Inc."
 90
     1024
280
     0
281
     0
  0
CLASS
  1
ACMSURFSTANDARDISO2002
  2
AcmSurfTextStdISO2002
  3
"Amdt_StdImp|Product Description: AutoCAD Mechanical|Company: Autodesk, Inc."
 90
     1024
280
     0
281
     0
  0
CLASS
  1
ACMFCFSTANDARDISO
  2
AcmFCFStdISO
  3
"Amdt_StdImp|Product Description: AutoCAD Mechanical|Company: Autodesk, Inc."
 90
     1024
280
     0
281
     0
  0
CLASS
  1
ACMWELDSTANDARDISO
  2
AcmWeldingStdISO
  3
"Amdt_StdImp|Product Description: AutoCAD Mechanical|Company: Autodesk, Inc."
 90
     1024
280
     0
281
     0
  0
CLASS
  1
ACMIDSTANDARDISO
  2
AcmIdStdISO
  3
"Amdt_StdImp|Product Description: AutoCAD Mechanical|Company: Autodesk, Inc."
 90
     1024
280
     0
281
     0
  0
CLASS
  1
ACMDATUMSTANDARDISO
  2
AcmDatumStdISO
  3
"Amdt_StdImp|Product Description: AutoCAD Mechanical|Company: Autodesk, Inc."
 90
     1024
280
     0
281
     0
  0
CLASS
  1
ACMBOMSTANDARDISO
  2
AcmBOMStdISO
  3
"Amdt_StdImp|Product Description: AutoCAD Mechanical|Company: Autodesk, Inc."
 90
     1024
280
     0
281
     0
  0
CLASS
  1
ACMDETAILSTANDARDISO
  2
AmdtDetailSymStdISO
  3
"Amdt_StdImp|Product Description: AutoCAD Mechanical|Company: Autodesk, Inc."
 90
     1024
280
     0
281
     0
  0
CLASS
  1
ACMSECTIONSTANDARDISO2001
  2
AmdtSectionSymStdISO2001
  3
"Amdt_StdImp|Product Description: AutoCAD Mechanical|Company: Autodesk, Inc."
 90
     1024
280
     0
281
     0
  0
CLASS
  1
ACMCENTERLINESTANDARDISO
  2
AmdtCenterLineStdISO
  3
"Amdt_StdImp|Product Description: AutoCAD Mechanical|Company: Autodesk, Inc."
 90
     1024
280
     0
281
     0
  0
CLASS
  1
ACMTHREADLINESTANDARDISO
  2
AmdtThreadLineStdISO
  3
"Amdt_StdImp|Product Description: AutoCAD Mechanical|Company: Autodesk, Inc."
 90
     1024
280
     0
281
     0
  0
CLASS
  1
ACMNOTESTANDARDISO
  2
AmdtNoteStdISO
  3
"Amdt_StdImp|Product Description: AutoCAD Mechanical|Company: Autodesk, Inc."
 90
     1024
280
     0
281
     0
  0
CLASS
  1
ACMTAPERSTANDARDISO
  2
AcmTaperStdISO
  3
"Amdt_StdImp|Product Description: AutoCAD Mechanical|Company: Autodesk, Inc."
 90
     1024
280
     0
281
     0
  0
CLASS
  1
ACMANOOTATIONVIEWSTANDARDISO
  2
AmdtAnViewStdISO
  3
"Amdt_StdImp|Product Description: AutoCAD Mechanical|Company: Autodesk, Inc."
 90
     1024
280
     0
281
     0
  0
CLASS
  1
ACAMGLAYSTD
  2
AcAmgLayStd
  3
"AmgLay|Product Description: AutoCAD Mechanical|Company: Autodesk, Inc."
 90
     1024
280
     0
281
     0
  0
CLASS
  1
ACAMGDIMSTD
  2
AcAmgDimStd
  3
"AmgDim|Product Description: AutoCAD Mechanical|Company: Autodesk, Inc."
 90
     1024
280
     0
281
     0
  0
CLASS
  1
ACAMGHOLECHARTSTDISO
  2
AcAmgHoleChartStdISO
  3
AmgDim|Product Description: AutoCAD Mechanical|Company: Autodesk, Inc.
 90
     1024
280
     0
281
     0
  0
CLASS
  1
AMGOBJPROPCFG
  2
AmgObjPropCfg
  3
"AmgLay|Product Description: AutoCAD Mechanical|Company: Autodesk, Inc."
 90
     1025
280
     0
281
     0
  0
CLASS
  1
ACAMGTITLESTD
  2
AcAmgTitleStd
  3
"AmgTitle|Product Description: AutoCAD Mechanical|Company: Autodesk, Inc."
 90
     4095
280
     0
281
     0
  0
CLASS
  1
AMDTNOTETEMPLATEDB
  2
AmdtNoteTemplateDB
  3
AcmSymBB|Product Description: AutoCAD Mechanical|Company: Autodesk, Inc.
 90
     1024
280
     0
281
     0
  0
CLASS
  1
ACAMGFILTERDAT
  2
AcAmgFilterDat
  3
"AcadM|Product Description: AutoCAD Mechanical|Company: Autodesk, Inc."
 90
     1024
280
     0
281
     0
  0
ENDSEC
  0
SECTION
  2
TABLES
  0
TABLE
  2
VPORT
  5
8
102
{ACAD_XDICTIONARY
360
1C62
102
}
330
0
100
AcDbSymbolTable
 70
     1
  0
VPORT
  5
62
330
8
100
AcDbSymbolTableRecord
100
AcDbViewportTableRecord
  2
*Active
 70
     0
 10
0.0
 20
0.0
 11
1.0
 21
1.0
 12
303.8657698236241
 22
208.2055673820498
 13
0.0
 23
0.0
 14
1.0
 24
1.0
 15
0.0
 25
0.0
 16
0.0
 26
0.0
 36
1.0
 17
0.0
 27
0.0
 37
0.0
 40
393.7368314220912
 41
1.793142857142857
 42
50.0
 43
0.0
 44
0.0
 50
0.0
 51
0.0
 71
     0
 72
   100
 73
     1
 74
     1
 75
     0
 76
     0
 77
     0
 78
     0
281
     0
 65
     1
110
0.0
120
0.0
130
0.0
111
1.0
121
0.0
131
0.0
112
0.0
122
1.0
132
0.0
 79
     0
146
0.0
  0
ENDTAB
  0
TABLE
  2
LTYPE
  5
5
330
0
100
AcDbSymbolTable
 70
    69
  0
LTYPE
  5
66
330
5
100
AcDbSymbolTableRecord
100
AcDbLinetypeTableRecord
  2
ByBlock
 70
     0
  3

 72
    65
 73
     0
 40
0.0
  0
LTYPE
  5
67
330
5
100
AcDbSymbolTableRecord
100
AcDbLinetypeTableRecord
  2
ByLayer
 70
     0
  3

 72
    65
 73
     0
 40
0.0
  0
LTYPE
  5
68
330
5
100
AcDbSymbolTableRecord
100
AcDbLinetypeTableRecord
  2
Continuous
 70
     0
  3
Solid line
 72
    65
 73
     0
 40
0.0
  0
LTYPE
  5
7F
330
5
100
AcDbSymbolTableRecord
100
AcDbLinetypeTableRecord
  2
Section_View_Lines
 70
     0
  3
Section View Lines
 72
    65
 73
     4
 40
0.8406
 49
0.6614
 74
     0
 49
-0.0827
 74
     0
 49
0.0138
 74
     0
 49
-0.0827
 74
     0
  0
LTYPE
  5
80
330
5
100
AcDbSymbolTableRecord
100
AcDbLinetypeTableRecord
  2
CHAIN
 70
     0
  3
Chain ____ _ ____ _ ____ _ ____ _ ____ _ ____
 72
    65
 73
     4
 40
0.3543
 49
0.2362
 74
     0
 49
-0.0295
 74
     0
 49
0.0591
 74
     0
 49
-0.0295
 74
     0
  0
LTYPE
  5
81
330
5
100
AcDbSymbolTableRecord
100
AcDbLinetypeTableRecord
  2
DASH_DOT
 70
     0
  3
Dash dot _._._._._._._._._._._._._._._.
 72
    65
 73
     4
 40
0.182
 49
0.1181
 74
     0
 49
-0.0295
 74
     0
 49
0.0049
 74
     0
 49
-0.0295
 74
     0
  0
LTYPE
  5
82
330
5
100
AcDbSymbolTableRecord
100
AcDbLinetypeTableRecord
  2
DASH_DOUBLE_DOT
 70
     0
  3
Dash Double Dot __ __ . __ __ . __ __ . __ _
 72
    65
 73
     6
 40
0.2164
 49
0.1181
 74
     0
 49
-0.0295
 74
     0
 49
0.0049
 74
     0
 49
-0.0295
 74
     0
 49
0.0049
 74
     0
 49
-0.0295
 74
     0
  0
LTYPE
  5
83
330
5
100
AcDbSymbolTableRecord
100
AcDbLinetypeTableRecord
  2
DASH_TRIPLE_DOT
 70
     0
  3
Dash Triple-Dot _ . . . _ . . . _ . . . _
 72
    65
 73
     8
 40
0.2508
 49
0.1181
 74
     0
 49
-0.0295
 74
     0
 49
0.0049
 74
     0
 49
-0.0295
 74
     0
 49
0.0049
 74
     0
 49
-0.0295
 74
     0
 49
0.0049
 74
     0
 49
-0.0295
 74
     0
  0
LTYPE
  5
84
330
5
100
AcDbSymbolTableRecord
100
AcDbLinetypeTableRecord
  2
DASHED
 70
     0
  3
Dashed __ __ __ __ __ __ __ __ __ __ __ __ __ _
 72
    65
 73
     2
 40
0.2068
 49
0.1655
 74
     0
 49
-0.0413
 74
     0
  0
LTYPE
  5
85
330
5
100
AcDbSymbolTableRecord
100
AcDbLinetypeTableRecord
  2
DASHED_SPACE
 70
     0
  3
Dashed Space __ __ __ __ __ __ __ __ __ __ __ _
 72
    65
 73
     2
 40
0.2067
 49
0.1654
 74
     0
 49
-0.0413
 74
     0
  0
LTYPE
  5
86
330
5
100
AcDbSymbolTableRecord
100
AcDbLinetypeTableRecord
  2
DOTTED
 70
     0
  3
Dotted . . . . . . . . . . . . . . . . . . . . 
 72
    65
 73
     2
 40
0.0481
 49
0.0068
 74
     0
 49
-0.0413
 74
     0
  0
LTYPE
  5
87
330
5
100
AcDbSymbolTableRecord
100
AcDbLinetypeTableRecord
  2
DOUBLE_DASH_CHAIN
 70
     0
  3
Double Dash Chain ___ _ _ ___ _ _ ___ _ _ ___ _
 72
    65
 73
     6
 40
1.240299999999999
 49
0.6614
 74
     0
 49
-0.0827
 74
     0
 49
0.1654
 74
     0
 49
-0.0827
 74
     0
 49
0.1654
 74
     0
 49
-0.0827
 74
     0
  0
LTYPE
  5
88
330
5
100
AcDbSymbolTableRecord
100
AcDbLinetypeTableRecord
  2
DOUBLE_DASH_DOT
 70
     0
  3
Double Dash Dot __ __ . __ __ . __ __ . __ _
 72
    65
 73
     6
 40
0.3296
 49
0.1181
 74
     0
 49
-0.0295
 74
     0
 49
0.1181
 74
     0
 49
-0.0295
 74
     0
 49
0.0049
 74
     0
 49
-0.0295
 74
     0
  0
LTYPE
  5
89
330
5
100
AcDbSymbolTableRecord
100
AcDbLinetypeTableRecord
  2
DOUBLE_DASH_DOUBLE_DOT
 70
     0
  3
Double Dash Double Dot _ _ . . _ _ . . _ _
 72
    65
 73
     8
 40
0.364
 49
0.1181
 74
     0
 49
-0.0295
 74
     0
 49
0.1181
 74
     0
 49
-0.0295
 74
     0
 49
0.0049
 74
     0
 49
-0.0295
 74
     0
 49
0.0049
 74
     0
 49
-0.0295
 74
     0
  0
LTYPE
  5
8A
330
5
100
AcDbSymbolTableRecord
100
AcDbLinetypeTableRecord
  2
DOUBLE_DASH_TRIPLE_DOT
 70
     0
  3
Double Dash Triple Dot __ __ . . . __ __ . . .
 72
    65
 73
    10
 40
0.3984
 49
0.1181
 74
     0
 49
-0.0295
 74
     0
 49
0.1181
 74
     0
 49
-0.0295
 74
     0
 49
0.0049
 74
     0
 49
-0.0295
 74
     0
 49
0.0049
 74
     0
 49
-0.0295
 74
     0
 49
0.0049
 74
     0
 49
-0.0295
 74
     0
  0
LTYPE
  5
8B
330
5
100
AcDbSymbolTableRecord
100
AcDbLinetypeTableRecord
  2
LONG_DASH_DOTTED
 70
     0
  3
Long Dash Dotted ____ . ____ . ____ . ____ . _
 72
    65
 73
     4
 40
0.3001
 49
0.2362
 74
     0
 49
-0.0295
 74
     0
 49
0.0049
 74
     0
 49
-0.0295
 74
     0
  0
LTYPE
  5
8C
330
5
100
AcDbSymbolTableRecord
100
AcDbLinetypeTableRecord
  2
LONG_DASH_DOUBLE_DOT
 70
     0
  3
Long Dash Double Dot ____ . . ____ . . ____ . .
 72
    65
 73
     6
 40
0.3345
 49
0.2362
 74
     0
 49
-0.0295
 74
     0
 49
0.0049
 74
     0
 49
-0.0295
 74
     0
 49
0.0049
 74
     0
 49
-0.0295
 74
     0
  0
LTYPE
  5
8D
330
5
100
AcDbSymbolTableRecord
100
AcDbLinetypeTableRecord
  2
LONG_DASH_TRIPLE_DOT
 70
     0
  3
Long Dash Triple Dot ____ ... ____ ... ____
 72
    65
 73
     8
 40
0.3689
 49
0.2362
 74
     0
 49
-0.0295
 74
     0
 49
0.0049
 74
     0
 49
-0.0295
 74
     0
 49
0.0049
 74
     0
 49
-0.0295
 74
     0
 49
0.0049
 74
     0
 49
-0.0295
 74
     0
  0
LTYPE
  5
8E
330
5
100
AcDbSymbolTableRecord
100
AcDbLinetypeTableRecord
  2
BORDER
 70
     0
  3
Border __ __ . __ __ . __ __ . __ __ . __ __ .
 72
    65
 73
     6
 40
44.45
 49
12.7
 74
     0
 49
-6.349999999999999
 74
     0
 49
12.7
 74
     0
 49
-6.349999999999999
 74
     0
 49
0.0
 74
     0
 49
-6.349999999999999
 74
     0
  0
LTYPE
  5
8F
330
5
100
AcDbSymbolTableRecord
100
AcDbLinetypeTableRecord
  2
BORDER2
 70
     0
  3
Border (.5x) __.__.__.__.__.__.__.__.__.__.__.
 72
    65
 73
     6
 40
22.225
 49
6.349999999999999
 74
     0
 49
-3.174999999999999
 74
     0
 49
6.349999999999999
 74
     0
 49
-3.174999999999999
 74
     0
 49
0.0
 74
     0
 49
-3.174999999999999
 74
     0
  0
LTYPE
  5
90
330
5
100
AcDbSymbolTableRecord
100
AcDbLinetypeTableRecord
  2
BORDERX2
 70
     0
  3
Border (2x) ____  ____  .  ____  ____  .  ___
 72
    65
 73
     6
 40
88.9
 49
25.4
 74
     0
 49
-12.7
 74
     0
 49
25.4
 74
     0
 49
-12.7
 74
     0
 49
0.0
 74
     0
 49
-12.7
 74
     0
  0
LTYPE
  5
91
330
5
100
AcDbSymbolTableRecord
100
AcDbLinetypeTableRecord
  2
CENTER
 70
     0
  3
Center ____ _ ____ _ ____ _ ____ _ ____ _ ____
 72
    65
 73
     4
 40
50.8
 49
31.75
 74
     0
 49
-6.349999999999999
 74
     0
 49
6.349999999999999
 74
     0
 49
-6.349999999999999
 74
     0
  0
LTYPE
  5
92
330
5
100
AcDbSymbolTableRecord
100
AcDbLinetypeTableRecord
  2
CENTER2
 70
     0
  3
Center (.5x) ___ _ ___ _ ___ _ ___ _ ___ _ ___
 72
    65
 73
     4
 40
28.575
 49
19.05
 74
     0
 49
-3.174999999999999
 74
     0
 49
3.174999999999999
 74
     0
 49
-3.174999999999999
 74
     0
  0
LTYPE
  5
93
330
5
100
AcDbSymbolTableRecord
100
AcDbLinetypeTableRecord
  2
CENTERX2
 70
     0
  3
Center (2x) ________  __  ________  __  _____
 72
    65
 73
     4
 40
101.6
 49
63.5
 74
     0
 49
-12.7
 74
     0
 49
12.7
 74
     0
 49
-12.7
 74
     0
  0
LTYPE
  5
94
330
5
100
AcDbSymbolTableRecord
100
AcDbLinetypeTableRecord
  2
DASHDOT2
 70
     0
  3
Dash dot (.5x) _._._._._._._._._._._._._._._.
 72
    65
 73
     4
 40
12.7
 49
6.349999999999999
 74
     0
 49
-3.174999999999999
 74
     0
 49
0.0
 74
     0
 49
-3.174999999999999
 74
     0
  0
LTYPE
  5
95
330
5
100
AcDbSymbolTableRecord
100
AcDbLinetypeTableRecord
  2
DASHDOTX2
 70
     0
  3
Dash dot (2x) ____  .  ____  .  ____  .  ___
 72
    65
 73
     4
 40
50.8
 49
25.4
 74
     0
 49
-12.7
 74
     0
 49
0.0
 74
     0
 49
-12.7
 74
     0
  0
LTYPE
  5
96
330
5
100
AcDbSymbolTableRecord
100
AcDbLinetypeTableRecord
  2
DASHED2
 70
     0
  3
Dashed (.5x) _ _ _ _ _ _ _ _ _ _ _ _ _ _ _ _ _
 72
    65
 73
     2
 40
9.524999999999998
 49
6.349999999999999
 74
     0
 49
-3.174999999999999
 74
     0
  0
LTYPE
  5
97
330
5
100
AcDbSymbolTableRecord
100
AcDbLinetypeTableRecord
  2
DASHEDX2
 70
     0
  3
Dashed (2x) ____  ____  ____  ____  ____  ___
 72
    65
 73
     2
 40
38.1
 49
25.4
 74
     0
 49
-12.7
 74
     0
  0
LTYPE
  5
98
330
5
100
AcDbSymbolTableRecord
100
AcDbLinetypeTableRecord
  2
DIVIDE
 70
     0
  3
Divide ____ . . ____ . . ____ . . ____ . . ____
 72
    65
 73
     6
 40
31.75
 49
12.7
 74
     0
 49
-6.349999999999999
 74
     0
 49
0.0
 74
     0
 49
-6.349999999999999
 74
     0
 49
0.0
 74
     0
 49
-6.349999999999999
 74
     0
  0
LTYPE
  5
99
330
5
100
AcDbSymbolTableRecord
100
AcDbLinetypeTableRecord
  2
DIVIDE2
 70
     0
  3
Divide (.5x) __..__..__..__..__..__..__..__.._
 72
    65
 73
     6
 40
15.875
 49
6.349999999999999
 74
     0
 49
-3.174999999999999
 74
     0
 49
0.0
 74
     0
 49
-3.174999999999999
 74
     0
 49
0.0
 74
     0
 49
-3.174999999999999
 74
     0
  0
LTYPE
  5
9A
330
5
100
AcDbSymbolTableRecord
100
AcDbLinetypeTableRecord
  2
DIVIDEX2
 70
     0
  3
Divide (2x) ________  .  .  ________  .  .  _
 72
    65
 73
     6
 40
63.49999999999999
 49
25.4
 74
     0
 49
-12.7
 74
     0
 49
0.0
 74
     0
 49
-12.7
 74
     0
 49
0.0
 74
     0
 49
-12.7
 74
     0
  0
LTYPE
  5
9B
330
5
100
AcDbSymbolTableRecord
100
AcDbLinetypeTableRecord
  2
DOT
 70
     0
  3
Dot . . . . . . . . . . . . . . . . . . . . . .
 72
    65
 73
     2
 40
6.349999999999999
 49
0.0
 74
     0
 49
-6.349999999999999
 74
     0
  0
LTYPE
  5
9C
330
5
100
AcDbSymbolTableRecord
100
AcDbLinetypeTableRecord
  2
DOT2
 70
     0
  3
Dot (.5x) .....................................
 72
    65
 73
     2
 40
3.174999999999999
 49
0.0
 74
     0
 49
-3.174999999999999
 74
     0
  0
LTYPE
  5
9D
330
5
100
AcDbSymbolTableRecord
100
AcDbLinetypeTableRecord
  2
DOTX2
 70
     0
  3
Dot (2x) .  .  .  .  .  .  .  .  .  .  .  .  . 
 72
    65
 73
     2
 40
12.7
 49
0.0
 74
     0
 49
-12.7
 74
     0
  0
LTYPE
  5
9E
330
5
100
AcDbSymbolTableRecord
100
AcDbLinetypeTableRecord
  2
HIDDEN
 70
     0
  3
Hidden __ __ __ __ __ __ __ __ __ __ __ __ __ _
 72
    65
 73
     2
 40
9.524999999999998
 49
6.349999999999999
 74
     0
 49
-3.174999999999999
 74
     0
  0
LTYPE
  5
9F
330
5
100
AcDbSymbolTableRecord
100
AcDbLinetypeTableRecord
  2
HIDDEN2
 70
     0
  3
Hidden (.5x) _ _ _ _ _ _ _ _ _ _ _ _ _ _ _ _ _
 72
    65
 73
     2
 40
4.762499999999999
 49
3.174999999999999
 74
     0
 49
-1.587499999999999
 74
     0
  0
LTYPE
  5
A0
330
5
100
AcDbSymbolTableRecord
100
AcDbLinetypeTableRecord
  2
HIDDENX2
 70
     0
  3
Hidden (2x) ____ ____ ____ ____ ____ ____ ____
 72
    65
 73
     2
 40
19.05
 49
12.7
 74
     0
 49
-6.349999999999999
 74
     0
  0
LTYPE
  5
A1
330
5
100
AcDbSymbolTableRecord
100
AcDbLinetypeTableRecord
  2
PHANTOM
 70
     0
  3
Phantom ______  __  __  ______  __  __  ______
 72
    65
 73
     6
 40
63.5
 49
31.75
 74
     0
 49
-6.349999999999999
 74
     0
 49
6.349999999999999
 74
     0
 49
-6.349999999999999
 74
     0
 49
6.349999999999999
 74
     0
 49
-6.349999999999999
 74
     0
  0
LTYPE
  5
A2
330
5
100
AcDbSymbolTableRecord
100
AcDbLinetypeTableRecord
  2
PHANTOM2
 70
     0
  3
Phantom (.5x) ___ _ _ ___ _ _ ___ _ _ ___ _ _
 72
    65
 73
     6
 40
31.75
 49
15.875
 74
     0
 49
-3.174999999999999
 74
     0
 49
3.174999999999999
 74
     0
 49
-3.174999999999999
 74
     0
 49
3.174999999999999
 74
     0
 49
-3.174999999999999
 74
     0
  0
LTYPE
  5
A3
330
5
100
AcDbSymbolTableRecord
100
AcDbLinetypeTableRecord
  2
PHANTOMX2
 70
     0
  3
Phantom (2x) ____________    ____    ____   _
 72
    65
 73
     6
 40
127.0
 49
63.5
 74
     0
 49
-12.7
 74
     0
 49
12.7
 74
     0
 49
-12.7
 74
     0
 49
12.7
 74
     0
 49
-12.7
 74
     0
  0
LTYPE
  5
A4
330
5
100
AcDbSymbolTableRecord
100
AcDbLinetypeTableRecord
  2
ACAD_ISO02W100
 70
     0
  3
ISO dash __ __ __ __ __ __ __ __ __ __ __ __ __
 72
    65
 73
     2
 40
15.0
 49
12.0
 74
     0
 49
-3.0
 74
     0
  0
LTYPE
  5
A5
330
5
100
AcDbSymbolTableRecord
100
AcDbLinetypeTableRecord
  2
ACAD_ISO03W100
 70
     0
  3
ISO dash space __    __    __    __    __    __
 72
    65
 73
     2
 40
30.0
 49
12.0
 74
     0
 49
-18.0
 74
     0
  0
LTYPE
  5
A6
330
5
100
AcDbSymbolTableRecord
100
AcDbLinetypeTableRecord
  2
ACAD_ISO04W100
 70
     0
  3
ISO long-dash dot ____ . ____ . ____ . ____ . _
 72
    65
 73
     4
 40
30.0
 49
24.0
 74
     0
 49
-3.0
 74
     0
 49
0.0
 74
     0
 49
-3.0
 74
     0
  0
LTYPE
  5
A7
330
5
100
AcDbSymbolTableRecord
100
AcDbLinetypeTableRecord
  2
ACAD_ISO05W100
 70
     0
  3
ISO long-dash double-dot ____ .. ____ .. ____ .
 72
    65
 73
     6
 40
33.0
 49
24.0
 74
     0
 49
-3.0
 74
     0
 49
0.0
 74
     0
 49
-3.0
 74
     0
 49
0.0
 74
     0
 49
-3.0
 74
     0
  0
LTYPE
  5
A8
330
5
100
AcDbSymbolTableRecord
100
AcDbLinetypeTableRecord
  2
ACAD_ISO06W100
 70
     0
  3
ISO long-dash triple-dot ____ ... ____ ... ____
 72
    65
 73
     8
 40
36.0
 49
24.0
 74
     0
 49
-3.0
 74
     0
 49
0.0
 74
     0
 49
-3.0
 74
     0
 49
0.0
 74
     0
 49
-3.0
 74
     0
 49
0.0
 74
     0
 49
-3.0
 74
     0
  0
LTYPE
  5
A9
330
5
100
AcDbSymbolTableRecord
100
AcDbLinetypeTableRecord
  2
ACAD_ISO07W100
 70
     0
  3
ISO dot . . . . . . . . . . . . . . . . . . . .
 72
    65
 73
     2
 40
3.0
 49
0.0
 74
     0
 49
-3.0
 74
     0
  0
LTYPE
  5
AA
330
5
100
AcDbSymbolTableRecord
100
AcDbLinetypeTableRecord
  2
ACAD_ISO08W100
 70
     0
  3
ISO long-dash short-dash ____ __ ____ __ ____ _
 72
    65
 73
     4
 40
36.0
 49
24.0
 74
     0
 49
-3.0
 74
     0
 49
6.0
 74
     0
 49
-3.0
 74
     0
  0
LTYPE
  5
AB
330
5
100
AcDbSymbolTableRecord
100
AcDbLinetypeTableRecord
  2
ACAD_ISO09W100
 70
     0
  3
ISO long-dash double-short-dash ____ __ __ ____
 72
    65
 73
     6
 40
45.0
 49
24.0
 74
     0
 49
-3.0
 74
     0
 49
6.0
 74
     0
 49
-3.0
 74
     0
 49
6.0
 74
     0
 49
-3.0
 74
     0
  0
LTYPE
  5
AC
330
5
100
AcDbSymbolTableRecord
100
AcDbLinetypeTableRecord
  2
ACAD_ISO10W100
 70
     0
  3
ISO dash dot __ . __ . __ . __ . __ . __ . __ .
 72
    65
 73
     4
 40
18.0
 49
12.0
 74
     0
 49
-3.0
 74
     0
 49
0.0
 74
     0
 49
-3.0
 74
     0
  0
LTYPE
  5
AD
330
5
100
AcDbSymbolTableRecord
100
AcDbLinetypeTableRecord
  2
ACAD_ISO11W100
 70
     0
  3
ISO double-dash dot __ __ . __ __ . __ __ . __ 
 72
    65
 73
     6
 40
33.0
 49
12.0
 74
     0
 49
-3.0
 74
     0
 49
12.0
 74
     0
 49
-3.0
 74
     0
 49
0.0
 74
     0
 49
-3.0
 74
     0
  0
LTYPE
  5
AE
330
5
100
AcDbSymbolTableRecord
100
AcDbLinetypeTableRecord
  2
ACAD_ISO12W100
 70
     0
  3
ISO dash double-dot __ . . __ . . __ . . __ . .
 72
    65
 73
     6
 40
21.0
 49
12.0
 74
     0
 49
-3.0
 74
     0
 49
0.0
 74
     0
 49
-3.0
 74
     0
 49
0.0
 74
     0
 49
-3.0
 74
     0
  0
LTYPE
  5
AF
330
5
100
AcDbSymbolTableRecord
100
AcDbLinetypeTableRecord
  2
ACAD_ISO13W100
 70
     0
  3
ISO double-dash double-dot __ __ . . __ __ . . 
 72
    65
 73
     8
 40
36.0
 49
12.0
 74
     0
 49
-3.0
 74
     0
 49
12.0
 74
     0
 49
-3.0
 74
     0
 49
0.0
 74
     0
 49
-3.0
 74
     0
 49
0.0
 74
     0
 49
-3.0
 74
     0
  0
LTYPE
  5
B0
330
5
100
AcDbSymbolTableRecord
100
AcDbLinetypeTableRecord
  2
ACAD_ISO14W100
 70
     0
  3
ISO dash triple-dot __ . . . __ . . . __ . . . 
 72
    65
 73
     8
 40
24.0
 49
12.0
 74
     0
 49
-3.0
 74
     0
 49
0.0
 74
     0
 49
-3.0
 74
     0
 49
0.0
 74
     0
 49
-3.0
 74
     0
 49
0.0
 74
     0
 49
-3.0
 74
     0
  0
LTYPE
  5
B1
330
5
100
AcDbSymbolTableRecord
100
AcDbLinetypeTableRecord
  2
ACAD_ISO15W100
 70
     0
  3
ISO double-dash triple-dot __ __ . . . __ __ . 
 72
    65
 73
    10
 40
39.0
 49
12.0
 74
     0
 49
-3.0
 74
     0
 49
12.0
 74
     0
 49
-3.0
 74
     0
 49
0.0
 74
     0
 49
-3.0
 74
     0
 49
0.0
 74
     0
 49
-3.0
 74
     0
 49
0.0
 74
     0
 49
-3.0
 74
     0
  0
LTYPE
  5
B4
330
5
100
AcDbSymbolTableRecord
100
AcDbLinetypeTableRecord
  2
FENCELINE1
 70
     0
  3
Fenceline circle ----0-----0----0-----0----0---
 72
    65
 73
     4
 40
36.83
 49
6.349999999999999
 74
     0
 49
-2.54
 74
     4
 75
   133
340
B3
 46
2.54
 50
0.0
 44
-2.54
 45
0.0
 49
-2.54
 74
     0
 49
25.4
 74
     0
  0
LTYPE
  5
B5
330
5
100
AcDbSymbolTableRecord
100
AcDbLinetypeTableRecord
  2
FENCELINE2
 70
     0
  3
Fenceline square ----[]-----[]----[]-----[]----
 72
    65
 73
     4
 40
36.83
 49
6.349999999999999
 74
     0
 49
-2.54
 74
     4
 75
   132
340
B3
 46
2.54
 50
0.0
 44
-2.54
 45
0.0
 49
-2.54
 74
     0
 49
25.4
 74
     0
  0
LTYPE
  5
B6
330
5
100
AcDbSymbolTableRecord
100
AcDbLinetypeTableRecord
  2
TRACKS
 70
     0
  3
Tracks -|-|-|-|-|-|-|-|-|-|-|-|-|-|-|-|-|-|-|-|
 72
    65
 73
     2
 40
7.62
 49
3.81
 74
     4
 75
   130
340
B3
 46
6.349999999999999
 50
0.0
 44
0.0
 45
0.0
 49
3.81
 74
     0
  0
LTYPE
  5
B7
330
5
100
AcDbSymbolTableRecord
100
AcDbLinetypeTableRecord
  2
BATTING
 70
     0
  3
Batting SSSSSSSSSSSSSSSSSSSSSSSSSSSSSSSSSSSSSSS
 72
    65
 73
     4
 40
10.16254
 49
0.00254
 74
     0
 49
-2.54
 74
     4
 75
   134
340
B3
 46
2.54
 50
0.0
 44
-2.54
 45
0.0
 49
-5.08
 74
     4
 75
   134
340
B3
 46
2.54
 50
180.0
 44
2.54
 45
0.0
 49
-2.54
 74
     0
  0
LTYPE
  5
B8
330
5
100
AcDbSymbolTableRecord
100
AcDbLinetypeTableRecord
  2
HOT_WATER_SUPPLY
 70
     0
  3
Hot water supply ---- HW ---- HW ---- HW ----
 72
    65
 73
     3
 40
22.86
 49
12.7
 74
     0
 49
-5.08
 74
     2
 75
     0
340
60
 46
2.54
 50
0.0
 44
-2.54
 45
-1.27
  9
HW
 49
-5.08
 74
     0
  0
LTYPE
  5
B9
330
5
100
AcDbSymbolTableRecord
100
AcDbLinetypeTableRecord
  2
GAS_LINE
 70
     0
  3
Gas line ----GAS----GAS----GAS----GAS----GAS---
 72
    65
 73
     3
 40
24.13
 49
12.7
 74
     0
 49
-5.08
 74
     2
 75
     0
340
60
 46
2.54
 50
0.0
 44
-2.54
 45
-1.27
  9
GAS
 49
-6.349999999999999
 74
     0
  0
LTYPE
  5
BA
330
5
100
AcDbSymbolTableRecord
100
AcDbLinetypeTableRecord
  2
ZIGZAG
 70
     0
  3
Zig zag /\/\/\/\/\/\/\/\/\/\/\/\/\/\/\/\/\/\/\/
 72
    65
 73
     4
 40
20.32254
 49
0.00254
 74
     0
 49
-5.08
 74
     4
 75
   131
340
B3
 46
5.08
 50
0.0
 44
-5.08
 45
0.0
 49
-10.16
 74
     4
 75
   131
340
B3
 46
5.08
 50
180.0
 44
5.08
 45
0.0
 49
-5.08
 74
     0
  0
LTYPE
  5
1D3F
330
5
100
AcDbSymbolTableRecord
100
AcDbLinetypeTableRecord
  2
AM_ISO02W050
 70
     0
  3
__ __ __ __ __ __ __ __ __ __ __ __ __ __ __
 72
    65
 73
     2
 40
7.5
 49
6.0
 74
     0
 49
-1.5
 74
     0
  0
LTYPE
  5
1D40
330
5
100
AcDbSymbolTableRecord
100
AcDbLinetypeTableRecord
  2
AM_ISO08W050
 70
     0
  3
____ . ____ . ____ . ____ . ____ . ____ . ____
 72
    65
 73
     4
 40
18.0
 49
12.0
 74
     0
 49
-1.5
 74
     0
 49
3.0
 74
     0
 49
-1.5
 74
     0
  0
LTYPE
  5
1D41
330
5
100
AcDbSymbolTableRecord
100
AcDbLinetypeTableRecord
  2
AM_ISO09W050
 70
     0
  3
_____ . . _____ . . _____ . . ____ .. ____
 72
    65
 73
     6
 40
22.5
 49
12.0
 74
     0
 49
-1.5
 74
     0
 49
3.0
 74
     0
 49
-1.5
 74
     0
 49
3.0
 74
     0
 49
-1.5
 74
     0
  0
LTYPE
  5
1D42
330
5
100
AcDbSymbolTableRecord
100
AcDbLinetypeTableRecord
  2
Amconstr
 70
     0
  3
_______________________
 72
    65
 73
     2
 40
9999.0
 49
9999.0
 74
     0
 49
0.0
 74
     0
  0
LTYPE
  5
1D43
330
5
100
AcDbSymbolTableRecord
100
AcDbLinetypeTableRecord
  2
AM_ISO08W050x2
 70
     0
  3
__ . __ . __ . __ . __ . __
 72
    65
 73
     4
 40
9.0
 49
6.0
 74
     0
 49
-0.75
 74
     0
 49
1.5
 74
     0
 49
-0.75
 74
     0
  0
LTYPE
  5
1D44
330
5
100
AcDbSymbolTableRecord
100
AcDbLinetypeTableRecord
  2
AM_ISO02W050x2
 70
     0
  3
 _ _ _ _ _ _ _ _ _ _ _ _
 72
    65
 73
     2
 40
3.75
 49
3.0
 74
     0
 49
-0.75
 74
     0
  0
LTYPE
  5
1D47
330
5
100
AcDbSymbolTableRecord
100
AcDbLinetypeTableRecord
  2
Amzigzag
 70
     0
  3
/\/-/\/-/\/-/\/-/\/-/\/
 72
    65
 73
     2
 40
11.0001
 49
0.0001
 74
     4
 75
   136
340
1D46
 46
0.04
 50
0.0
 44
0.0
 45
0.0
 49
-11.0
 74
     0
  0
LTYPE
  5
1D4B
330
5
100
AcDbSymbolTableRecord
100
AcDbLinetypeTableRecord
  2
ACISOWELD
 70
     0
  3
_ _ _ _ _
 72
    65
 73
     2
 40
2.0
 49
2.0
 74
     0
 49
-1.0
 74
     0
  0
LTYPE
  5
1D4C
330
5
100
AcDbSymbolTableRecord
100
AcDbLinetypeTableRecord
  2
ACISOTGB
 70
     0
  3
__ . . __ . .
 72
    65
 73
     6
 40
9.0
 49
4.0
 74
     0
 49
-1.0
 74
     0
 49
1.0
 74
     0
 49
-1.0
 74
     0
 49
1.0
 74
     0
 49
-1.0
 74
     0
  0
LTYPE
  5
1D4D
330
5
100
AcDbSymbolTableRecord
100
AcDbLinetypeTableRecord
  2
ACISOTGL
 70
     0
  3
_ _ _ _ _
 72
    65
 73
     2
 40
3.0
 49
2.0
 74
     0
 49
-1.0
 74
     0
  0
ENDTAB
  0
TABLE
  2
LAYER
  5
2
330
0
100
AcDbSymbolTable
 70
    12
  0
LAYER
  5
5F
330
2
100
AcDbSymbolTableRecord
100
AcDbLayerTableRecord
  2
0
 70
     0
 62
     7
  6
Continuous
370
    -3
390
F
  0
LAYER
  5
C1
330
2
100
AcDbSymbolTableRecord
100
AcDbLayerTableRecord
  2
Bordo_0
 70
     0
 62
   179
  6
Continuous
370
    50
390
F
  0
LAYER
  5
C2
330
2
100
AcDbSymbolTableRecord
100
AcDbLayerTableRecord
  2
Bordo_2
 70
     0
 62
   179
  6
Continuous
370
    50
390
F
  0
LAYER
  5
C7
330
2
100
AcDbSymbolTableRecord
100
AcDbLayerTableRecord
  2
Centro(ISO)
 70
     0
 62
   150
  6
Continuous
370
    18
390
F
  0
LAYER
  5
DF
330
2
100
AcDbSymbolTableRecord
100
AcDbLayerTableRecord
  2
Geometria schizzo(ISO)
 70
     0
 62
   179
  6
Continuous
370
    35
390
F
  0
LAYER
  5
E6
330
2
100
AcDbSymbolTableRecord
100
AcDbLayerTableRecord
  2
Linea del centro(ISO)
 70
     0
 62
   150
  6
LONG_DASH_DOTTED
370
    18
390
F
  0
LAYER
  5
15F
330
2
100
AcDbSymbolTableRecord
100
AcDbLayerTableRecord
  2
Quote(ISO)
 70
     0
 62
    96
  6
Continuous
370
    18
390
F
  0
LAYER
  5
165
330
2
100
AcDbSymbolTableRecord
100
AcDbLayerTableRecord
  2
Simboli(ISO)
 70
     0
 62
   179
  6
Continuous
370
    18
390
F
  0
LAYER
  5
172
330
2
100
AcDbSymbolTableRecord
100
AcDbLayerTableRecord
  2
Spigoli nascosti(ISO)
 70
     0
 62
     6
  6
DASHED
370
    35
390
F
  0
LAYER
  5
18A
330
2
100
AcDbSymbolTableRecord
100
AcDbLayerTableRecord
  2
Spigoli visibili(ISO)
 70
     0
 62
   179
  6
Continuous
370
    35
390
F
  0
LAYER
  5
18C
330
2
100
AcDbSymbolTableRecord
100
AcDbLayerTableRecord
  2
Tratteggio
 70
     0
 62
   179
  6
Continuous
370
     9
390
F
  0
LAYER
  5
451
330
2
100
AcDbSymbolTableRecord
100
AcDbLayerTableRecord
  2
Defpoints
 70
     0
 62
     7
  6
Continuous
290
     0
370
    -3
390
F
  0
ENDTAB
  0
TABLE
  2
STYLE
  5
3
330
0
100
AcDbSymbolTable
 70
    65
  0
STYLE
  5
60
330
3
100
AcDbSymbolTableRecord
100
AcDbTextStyleTableRecord
  2
Standard
 70
     0
 40
0.0
 41
1.0
 50
0.0
 71
     0
 42
0.2
  3
ARIAL.TTF
  4

1001
ACAD
1000
Arial
1071
      256
  0
STYLE
  5
65
330
3
100
AcDbSymbolTableRecord
100
AcDbTextStyleTableRecord
  2
Annotative
 70
     0
 40
0.0
 41
1.0
 50
0.0
 71
     0
 42
0.2
  3
txt
  4

1001
AcadAnnotative
1000
AnnotativeData
1002
{
1070
     1
1070
     1
1002
}
  0
STYLE
  5
B3
330
3
100
AcDbSymbolTableRecord
100
AcDbTextStyleTableRecord
  2

 70
     1
 40
0.0
 41
1.0
 50
0.0
 71
     0
 42
0.2
  3
ltypeshp.shx
  4

  0
STYLE
  5
18D
330
3
100
AcDbSymbolTableRecord
100
AcDbTextStyleTableRecord
  2
Bordo_1
 70
     0
 40
0.0
 41
1.0
 50
0.0
 71
     0
 42
0.2
  3
ARIAL.TTF
  4

1001
ACAD
1000
Arial
1071
      256
  0
STYLE
  5
18E
330
3
100
AcDbSymbolTableRecord
100
AcDbTextStyleTableRecord
  2
Corrente-ANSI
 70
     0
 40
0.0
 41
1.0
 50
0.0
 71
     0
 42
0.2
  3
ARIAL.TTF
  4

1001
ACAD
1000
Arial
1071
      256
  0
STYLE
  5
18F
330
3
100
AcDbSymbolTableRecord
100
AcDbTextStyleTableRecord
  2
Corrente-BSI
 70
     0
 40
0.0
 41
1.0
 50
0.0
 71
     0
 42
0.2
  3
ARIAL.TTF
  4

1001
ACAD
1000
Arial
1071
      256
  0
STYLE
  5
190
330
3
100
AcDbSymbolTableRecord
100
AcDbTextStyleTableRecord
  2
Corrente-DIN
 70
     0
 40
0.0
 41
1.0
 50
0.0
 71
     0
 42
0.2
  3
ARIAL.TTF
  4

1001
ACAD
1000
Arial
1071
      256
  0
STYLE
  5
191
330
3
100
AcDbSymbolTableRecord
100
AcDbTextStyleTableRecord
  2
Corrente-GB
 70
     0
 40
0.0
 41
1.0
 50
0.0
 71
     0
 42
0.2
  3
ARIAL.TTF
  4

1001
ACAD
1000
Arial
1071
      256
  0
STYLE
  5
192
330
3
100
AcDbSymbolTableRecord
100
AcDbTextStyleTableRecord
  2
Corrente-ISO
 70
     0
 40
0.0
 41
1.0
 50
0.0
 71
     0
 42
0.2
  3
ARIAL.TTF
  4

1001
ACAD
1000
Arial
1071
      256
  0
STYLE
  5
193
330
3
100
AcDbSymbolTableRecord
100
AcDbTextStyleTableRecord
  2
Corrente-JIS
 70
     0
 40
0.0
 41
1.0
 50
0.0
 71
     0
 42
0.2
  3
ARIAL.TTF
  4

1001
ACAD
1000
Arial
1071
      256
  0
STYLE
  5
194
330
3
100
AcDbSymbolTableRecord
100
AcDbTextStyleTableRecord
  2
DEFAULT-ANSI
 70
     0
 40
0.0
 41
1.0
 50
0.0
 71
     0
 42
0.2
  3
ARIAL.TTF
  4

1001
ACAD
1000
Arial
1071
      256
  0
STYLE
  5
195
330
3
100
AcDbSymbolTableRecord
100
AcDbTextStyleTableRecord
  2
DEFAULT-ANSI~0
 70
     0
 40
0.0
 41
1.0
 50
0.0
 71
     0
 42
0.2
  3
ARIAL.TTF
  4

1001
ACAD
1000
Arial
1071
      256
  0
STYLE
  5
196
330
3
100
AcDbSymbolTableRecord
100
AcDbTextStyleTableRecord
  2
DEFAULT-ANSIDa layer
 70
     0
 40
0.0
 41
1.0
 50
0.0
 71
     0
 42
0.2
  3
ARIAL.TTF
  4

1001
ACAD
1000
Arial
1071
      256
  0
STYLE
  5
197
330
3
100
AcDbSymbolTableRecord
100
AcDbTextStyleTableRecord
  2
DEFAULT-ANSITesto caratteri grandi
 70
     0
 40
0.0
 41
1.0
 50
0.0
 71
     0
 42
0.2
  3
ARIAL.TTF
  4

1001
ACAD
1000
Arial
1071
      256
  0
STYLE
  5
198
330
3
100
AcDbSymbolTableRecord
100
AcDbTextStyleTableRecord
  2
DEFAULT-BSI
 70
     0
 40
0.0
 41
1.0
 50
0.0
 71
     0
 42
0.2
  3
ARIAL.TTF
  4

1001
ACAD
1000
Arial
1071
      256
  0
STYLE
  5
199
330
3
100
AcDbSymbolTableRecord
100
AcDbTextStyleTableRecord
  2
DEFAULT-BSIDa layer
 70
     0
 40
0.0
 41
1.0
 50
0.0
 71
     0
 42
0.2
  3
ARIAL.TTF
  4

1001
ACAD
1000
Arial
1071
      256
  0
STYLE
  5
19A
330
3
100
AcDbSymbolTableRecord
100
AcDbTextStyleTableRecord
  2
DEFAULT-BSITesto caratteri grandi
 70
     0
 40
0.0
 41
1.0
 50
0.0
 71
     0
 42
0.2
  3
ARIAL.TTF
  4

1001
ACAD
1000
Arial
1071
      256
  0
STYLE
  5
19B
330
3
100
AcDbSymbolTableRecord
100
AcDbTextStyleTableRecord
  2
DEFAULT-DIN
 70
     0
 40
0.0
 41
1.0
 50
0.0
 71
     0
 42
0.2
  3
ARIAL.TTF
  4

1001
ACAD
1000
Arial
1071
      256
  0
STYLE
  5
19C
330
3
100
AcDbSymbolTableRecord
100
AcDbTextStyleTableRecord
  2
DEFAULT-DINDa layer
 70
     0
 40
0.0
 41
1.0
 50
0.0
 71
     0
 42
0.2
  3
ARIAL.TTF
  4

1001
ACAD
1000
Arial
1071
      256
  0
STYLE
  5
19D
330
3
100
AcDbSymbolTableRecord
100
AcDbTextStyleTableRecord
  2
DEFAULT-DINTesto caratteri grandi
 70
     0
 40
0.0
 41
1.0
 50
0.0
 71
     0
 42
0.2
  3
ARIAL.TTF
  4

1001
ACAD
1000
Arial
1071
      256
  0
STYLE
  5
19E
330
3
100
AcDbSymbolTableRecord
100
AcDbTextStyleTableRecord
  2
DEFAULT-GB
 70
     0
 40
0.0
 41
1.0
 50
0.0
 71
     0
 42
0.2
  3
ARIAL.TTF
  4

1001
ACAD
1000
Arial
1071
      256
  0
STYLE
  5
19F
330
3
100
AcDbSymbolTableRecord
100
AcDbTextStyleTableRecord
  2
DEFAULT-GBDa layer
 70
     0
 40
0.0
 41
1.0
 50
0.0
 71
     0
 42
0.2
  3
ARIAL.TTF
  4

1001
ACAD
1000
Arial
1071
      256
  0
STYLE
  5
1A0
330
3
100
AcDbSymbolTableRecord
100
AcDbTextStyleTableRecord
  2
DEFAULT-GBTesto caratteri grandi
 70
     0
 40
0.0
 41
1.0
 50
0.0
 71
     0
 42
0.2
  3
ARIAL.TTF
  4

1001
ACAD
1000
Arial
1071
      256
  0
STYLE
  5
1A1
330
3
100
AcDbSymbolTableRecord
100
AcDbTextStyleTableRecord
  2
DEFAULT-ISO
 70
     0
 40
0.0
 41
1.0
 50
0.0
 71
     0
 42
0.2
  3
ARIAL.TTF
  4

1001
ACAD
1000
Arial
1071
      256
  0
STYLE
  5
1A2
330
3
100
AcDbSymbolTableRecord
100
AcDbTextStyleTableRecord
  2
DEFAULT-ISO~0
 70
     0
 40
0.0
 41
1.0
 50
0.0
 71
     0
 42
0.2
  3
ARIAL.TTF
  4

1001
ACAD
1000
Arial
1071
      256
  0
STYLE
  5
1A3
330
3
100
AcDbSymbolTableRecord
100
AcDbTextStyleTableRecord
  2
DEFAULT-ISODa layer
 70
     0
 40
0.0
 41
1.0
 50
0.0
 71
     0
 42
0.2
  3
ARIAL.TTF
  4

1001
ACAD
1000
Arial
1071
      256
  0
STYLE
  5
1A4
330
3
100
AcDbSymbolTableRecord
100
AcDbTextStyleTableRecord
  2
DEFAULT-ISOTesto caratteri grandi
 70
     0
 40
0.0
 41
1.0
 50
0.0
 71
     0
 42
0.2
  3
ARIAL.TTF
  4

1001
ACAD
1000
Arial
1071
      256
  0
STYLE
  5
1A5
330
3
100
AcDbSymbolTableRecord
100
AcDbTextStyleTableRecord
  2
DEFAULT-JIS
 70
     0
 40
0.0
 41
1.0
 50
0.0
 71
     0
 42
0.2
  3
ARIAL.TTF
  4

1001
ACAD
1000
Arial
1071
      256
  0
STYLE
  5
1A6
330
3
100
AcDbSymbolTableRecord
100
AcDbTextStyleTableRecord
  2
DEFAULT-JIS~0
 70
     0
 40
0.0
 41
1.0
 50
0.0
 71
     0
 42
0.2
  3
ARIAL.TTF
  4

1001
ACAD
1000
Arial
1071
      256
  0
STYLE
  5
1A7
330
3
100
AcDbSymbolTableRecord
100
AcDbTextStyleTableRecord
  2
DEFAULT-JISDa layer
 70
     0
 40
0.0
 41
1.0
 50
0.0
 71
     0
 42
0.2
  3
ARIAL.TTF
  4

1001
ACAD
1000
Arial
1071
      256
  0
STYLE
  5
1A8
330
3
100
AcDbSymbolTableRecord
100
AcDbTextStyleTableRecord
  2
DEFAULT-JISTesto caratteri grandi
 70
     0
 40
0.0
 41
1.0
 50
0.0
 71
     0
 42
0.2
  3
ARIAL.TTF
  4

1001
ACAD
1000
Arial
1071
      256
  0
STYLE
  5
1A9
330
3
100
AcDbSymbolTableRecord
100
AcDbTextStyleTableRecord
  2
ISOCADMEC_1-1
 70
     0
 40
0.0
 41
1.064000010490417
 50
0.0
 71
     0
 42
0.2
  3
ARIAL.TTF
  4

1001
ACAD
1000
Arial
1071
      256
  0
STYLE
  5
1AA
330
3
100
AcDbSymbolTableRecord
100
AcDbTextStyleTableRecord
  2
MM-ANSI
 70
     0
 40
0.0
 41
1.0
 50
0.0
 71
     0
 42
0.2
  3
ARIAL.TTF
  4

1001
ACAD
1000
Arial
1071
      256
  0
STYLE
  5
1AB
330
3
100
AcDbSymbolTableRecord
100
AcDbTextStyleTableRecord
  2
STANDARDAM_ISO
 70
     0
 40
0.0
 41
1.064000010490417
 50
0.0
 71
     0
 42
0.2
  3
ISOCP.shx
  4

  0
STYLE
  5
1AC
330
3
100
AcDbSymbolTableRecord
100
AcDbTextStyleTableRecord
  2
STANDARDAM_ISO$3
 70
     0
 40
0.0
 41
1.064000010490417
 50
0.0
 71
     0
 42
0.2
  3
ISOCP.shx
  4

  0
STYLE
  5
1AD
330
3
100
AcDbSymbolTableRecord
100
AcDbTextStyleTableRecord
  2
STANDARDAM_ISO$4
 70
     0
 40
0.0
 41
1.064000010490417
 50
0.0
 71
     0
 42
0.2
  3
ISOCP.shx
  4

  0
STYLE
  5
1AE
330
3
100
AcDbSymbolTableRecord
100
AcDbTextStyleTableRecord
  2
STANDARDAM_ISO$6
 70
     0
 40
0.0
 41
1.064000010490417
 50
0.0
 71
     0
 42
0.2
  3
ISOCP.shx
  4

  0
STYLE
  5
1AF
330
3
100
AcDbSymbolTableRecord
100
AcDbTextStyleTableRecord
  2
STANDARDAM_ISO$7
 70
     0
 40
0.0
 41
1.064000010490417
 50
0.0
 71
     0
 42
0.2
  3
ISOCP.shx
  4

  0
STYLE
  5
1B0
330
3
100
AcDbSymbolTableRecord
100
AcDbTextStyleTableRecord
  2
STANDARDAM_ISO$SF
 70
     0
 40
0.0
 41
1.064000010490417
 50
0.0
 71
     0
 42
0.2
  3
ISOCP.shx
  4

  0
STYLE
  5
1B1
330
3
100
AcDbSymbolTableRecord
100
AcDbTextStyleTableRecord
  2
STANDARDAM_ISO$SH
 70
     0
 40
0.0
 41
1.064000010490417
 50
0.0
 71
     0
 42
0.2
  3
ISOCP.shx
  4

  0
STYLE
  5
1B2
330
3
100
AcDbSymbolTableRecord
100
AcDbTextStyleTableRecord
  2
STANDARDGEN-ISO
 70
     0
 40
0.0
 41
1.064000010490417
 50
0.0
 71
     0
 42
0.2
  3
ISOCP.shx
  4

  0
STYLE
  5
1B3
330
3
100
AcDbSymbolTableRecord
100
AcDbTextStyleTableRecord
  2
STANDARDGEN-ISO-AXE-F
 70
     0
 40
0.0
 41
1.064000010490417
 50
0.0
 71
     0
 42
0.2
  3
ISOCP.shx
  4

  0
STYLE
  5
1B4
330
3
100
AcDbSymbolTableRecord
100
AcDbTextStyleTableRecord
  2
STANDARDGEN-ISO-AXE-H
 70
     0
 40
0.0
 41
1.064000010490417
 50
0.0
 71
     0
 42
0.2
  3
ISOCP.shx
  4

  0
STYLE
  5
1B5
330
3
100
AcDbSymbolTableRecord
100
AcDbTextStyleTableRecord
  2
STANDARDGEN-ISO-POS
 70
     0
 40
0.0
 41
1.064000010490417
 50
0.0
 71
     0
 42
0.2
  3
ISOCP.shx
  4

  0
STYLE
  5
1B6
330
3
100
AcDbSymbolTableRecord
100
AcDbTextStyleTableRecord
  2
STANDARDGEN-ISO$3
 70
     0
 40
0.0
 41
1.064000010490417
 50
0.0
 71
     0
 42
0.2
  3
ISOCP.shx
  4

  0
STYLE
  5
1B7
330
3
100
AcDbSymbolTableRecord
100
AcDbTextStyleTableRecord
  2
STANDARDGEN-ISO$4
 70
     0
 40
0.0
 41
1.064000010490417
 50
0.0
 71
     0
 42
0.2
  3
ISOCP.shx
  4

  0
STYLE
  5
1B8
330
3
100
AcDbSymbolTableRecord
100
AcDbTextStyleTableRecord
  2
STANDARDGEN-ISO$6
 70
     0
 40
0.0
 41
1.064000010490417
 50
0.0
 71
     0
 42
0.2
  3
ISOCP.shx
  4

  0
STYLE
  5
1B9
330
3
100
AcDbSymbolTableRecord
100
AcDbTextStyleTableRecord
  2
STANDARDISO-25
 70
     0
 40
0.0
 41
1.064000010490417
 50
0.0
 71
     0
 42
0.2
  3
ISOCP.shx
  4

  0
STYLE
  5
1BA
330
3
100
AcDbSymbolTableRecord
100
AcDbTextStyleTableRecord
  2
STANDARDISO-35
 70
     0
 40
0.0
 41
1.064000010490417
 50
0.0
 71
     0
 42
0.2
  3
ISOCP.shx
  4

  0
STYLE
  5
1BB
330
3
100
AcDbSymbolTableRecord
100
AcDbTextStyleTableRecord
  2
STANDARDISO-5
 70
     0
 40
0.0
 41
1.064000010490417
 50
0.0
 71
     0
 42
0.2
  3
ISOCP.shx
  4

  0
STYLE
  5
1BC
330
3
100
AcDbSymbolTableRecord
100
AcDbTextStyleTableRecord
  2
STANDARDISO-7
 70
     0
 40
0.0
 41
1.064000010490417
 50
0.0
 71
     0
 42
0.2
  3
ISOCP.shx
  4

  0
STYLE
  5
1BD
330
3
100
AcDbSymbolTableRecord
100
AcDbTextStyleTableRecord
  2
STANDARDISO1
 70
     0
 40
0.0
 41
1.064000010490417
 50
0.0
 71
     0
 42
0.2
  3
ISOCP.shx
  4

  0
STYLE
  5
1BE
330
3
100
AcDbSymbolTableRecord
100
AcDbTextStyleTableRecord
  2
STANDARDISO1-4
 70
     0
 40
0.0
 41
1.064000010490417
 50
0.0
 71
     0
 42
0.2
  3
ISOCP.shx
  4

  0
STYLE
  5
1BF
330
3
100
AcDbSymbolTableRecord
100
AcDbTextStyleTableRecord
  2
STANDARDISO2
 70
     0
 40
0.0
 41
1.064000010490417
 50
0.0
 71
     0
 42
0.2
  3
ISOCP.shx
  4

  0
STYLE
  5
1C0
330
3
100
AcDbSymbolTableRecord
100
AcDbTextStyleTableRecord
  2
STANDARDSTANDARD
 70
     0
 40
0.0
 41
1.064000010490417
 50
0.0
 71
     0
 42
0.2
  3
ISOCP.shx
  4

  0
STYLE
  5
1C1
330
3
100
AcDbSymbolTableRecord
100
AcDbTextStyleTableRecord
  2
X . XXX
 70
     0
 40
0.0
 41
1.0
 50
0.0
 71
     0
 42
0.2
  3
ARIAL.TTF
  4

1001
ACAD
1000
Arial
1071
      256
  0
STYLE
  5
1C2
330
3
100
AcDbSymbolTableRecord
100
AcDbTextStyleTableRecord
  2
X.X spazio grande e testo
 70
     0
 40
0.0
 41
1.0
 50
0.0
 71
     0
 42
0.2
  3
ARIAL.TTF
  4

1001
ACAD
1000
Arial
1071
      256
  0
STYLE
  5
27E
330
3
100
AcDbSymbolTableRecord
100
AcDbTextStyleTableRecord
  2
Stile testo15
 70
     0
 40
0.0
 41
1.0
 50
0.0
 71
     0
 42
0.2
  3
ARIAL.TTF
  4

1001
ACAD
1000
Arial
1071
      256
  0
STYLE
  5
283
330
3
100
AcDbSymbolTableRecord
100
AcDbTextStyleTableRecord
  2
Stile testo116
 70
     0
 40
0.0
 41
0.899999976158142
 50
0.0
 71
     0
 42
0.2
  3
ARIAL.TTF
  4

1001
ACAD
1000
Arial
1071
      256
  0
STYLE
  5
285
330
3
100
AcDbSymbolTableRecord
100
AcDbTextStyleTableRecord
  2
Stile testo115
 70
     0
 40
0.0
 41
0.899999976158142
 50
0.0
 71
     0
 42
0.2
  3
ARIAL.TTF
  4

1001
ACAD
1000
Arial
1071
      256
  0
STYLE
  5
37B
330
3
100
AcDbSymbolTableRecord
100
AcDbTextStyleTableRecord
  2
Stile testo6
 70
     0
 40
0.0
 41
1.0
 50
0.0
 71
     0
 42
0.2
  3
ARIAL.TTF
  4

1001
ACAD
1000
Arial
1071
      256
  0
STYLE
  5
37E
330
3
100
AcDbSymbolTableRecord
100
AcDbTextStyleTableRecord
  2
Stile testo135
 70
     0
 40
0.0
 41
0.75
 50
0.0
 71
     0
 42
0.2
  3

  4

1001
ACAD
1000
Arial Black
1071
      256
  0
STYLE
  5
1D46
330
3
100
AcDbSymbolTableRecord
100
AcDbTextStyleTableRecord
  2

 70
     1
 40
0.0
 41
1.0
 50
0.0
 71
     0
 42
0.2
  3
genltshp.shx
  4

  0
STYLE
  5
1D49
330
3
100
AcDbSymbolTableRecord
100
AcDbTextStyleTableRecord
  2
ACISOTS
 70
     0
 40
1.0
 41
1.0
 50
0.0
 71
     0
 42
0.2
  3
isocp.shx
  4

  0
STYLE
  5
1D4A
330
3
100
AcDbSymbolTableRecord
100
AcDbTextStyleTableRecord
  2
ACISOGDT
 70
     0
 40
0.0
 41
1.0
 50
0.0
 71
     0
 42
0.2
  3
amgdt.shx
  4

  0
ENDTAB
  0
TABLE
  2
VIEW
  5
6
330
0
100
AcDbSymbolTable
 70
     0
  0
ENDTAB
  0
TABLE
  2
UCS
  5
7
330
0
100
AcDbSymbolTable
 70
     0
  0
ENDTAB
  0
TABLE
  2
APPID
  5
9
330
0
100
AcDbSymbolTable
 70
    14
  0
APPID
  5
61
330
9
100
AcDbSymbolTableRecord
100
AcDbRegAppTableRecord
  2
ACAD
 70
     0
  0
APPID
  5
69
330
9
100
AcDbSymbolTableRecord
100
AcDbRegAppTableRecord
  2
AcadAnnotative
 70
     0
  0
APPID
  5
281
330
9
100
AcDbSymbolTableRecord
100
AcDbRegAppTableRecord
  2
AcadAnnoPO
 70
     0
  0
APPID
  5
145A
330
9
100
AcDbSymbolTableRecord
100
AcDbRegAppTableRecord
  2
ACAD_DSTYLE_DIMANGULAR_EXTENSION
 70
     0
  0
APPID
  5
1C8E
330
9
100
AcDbSymbolTableRecord
100
AcDbRegAppTableRecord
  2
ACAD_MLEADERVER
 70
     0
  0
APPID
  5
1CCB
330
9
100
AcDbSymbolTableRecord
100
AcDbRegAppTableRecord
  2
MCAD_NO_VIS
 70
     0
  0
APPID
  5
1CCC
330
9
100
AcDbSymbolTableRecord
100
AcDbRegAppTableRecord
  2
ACAD_TEMP_GRAPHIC
 70
     0
  0
APPID
  5
1CF9
330
9
100
AcDbSymbolTableRecord
100
AcDbRegAppTableRecord
  2
AD_DRAW
 70
     0
  0
APPID
  5
1CFC
330
9
100
AcDbSymbolTableRecord
100
AcDbRegAppTableRecord
  2
ACATTRIBSERVICES
 70
     0
  0
APPID
  5
1D1C
330
9
100
AcDbSymbolTableRecord
100
AcDbRegAppTableRecord
  2
DESIGNERASSEMBLIES
 70
     0
  0
APPID
  5
1D22
330
9
100
AcDbSymbolTableRecord
100
AcDbRegAppTableRecord
  2
ACADM_DIM_EDIT
 70
     0
  0
APPID
  5
1D23
330
9
100
AcDbSymbolTableRecord
100
AcDbRegAppTableRecord
  2
AMDT_DM_ADJ
 70
     0
  0
APPID
  5
1D3B
330
9
100
AcDbSymbolTableRecord
100
AcDbRegAppTableRecord
  2
ACAD_DSTYLE_DIMBREAK
 70
     0
  0
APPID
  5
1D3C
330
9
100
AcDbSymbolTableRecord
100
AcDbRegAppTableRecord
  2
ACAD_DSTYLE_DIMJAG
 70
     0
  0
ENDTAB
  0
TABLE
  2
DIMSTYLE
  5
A
330
0
100
AcDbSymbolTable
 70
   100
100
AcDbDimStyleTable
 71
     2
340
1E7
340
63
  0
DIMSTYLE
105
63
330
A
100
AcDbSymbolTableRecord
100
AcDbDimStyleTableRecord
  2
Standard
 70
     0
 41
2.5
340
60
342
1F0
  0
DIMSTYLE
105
64
330
A
100
AcDbSymbolTableRecord
100
AcDbDimStyleTableRecord
  2
Annotative
 70
     0
340
60
1001
AcadAnnotative
1000
AnnotativeData
1002
{
1070
     1
1070
     1
1002
}
  0
DIMSTYLE
105
1C3
330
A
100
AcDbSymbolTableRecord
100
AcDbDimStyleTableRecord
  2
BSI - Metodo 2
 70
     0
 41
2.5
 42
0.5
 43
5.999999999999999
 44
2.999999999999999
 45
0.00000001
 46
10.0
 73
     0
 77
     1
 78
     8
 79
     2
140
3.5
143
0.03937
147
0.75
171
     3
172
     1
176
   250
177
   250
178
   250
179
     2
271
     2
272
     2
274
     3
278
    44
285
     8
340
1A2
371
    25
372
    25
  0
DIMSTYLE
105
1C4
330
A
100
AcDbSymbolTableRecord
100
AcDbDimStyleTableRecord
  2
BSI - Metodo 2$7
 70
     0
 41
2.5
 42
0.5
 43
5.999999999999999
 44
2.999999999999999
 45
0.00000001
 46
10.0
 73
     0
 77
     1
 78
     8
 79
     2
140
3.5
143
0.03937
147
0.75
171
     3
172
     1
176
   179
177
   250
178
   250
179
     2
271
     2
272
     2
274
     3
278
    44
285
     8
340
1A2
371
    25
372
    25
  0
DIMSTYLE
105
1C5
330
A
100
AcDbSymbolTableRecord
100
AcDbDimStyleTableRecord
  2
BSI - Metodo 2Testo caratteri grandi
 70
     0
 41
5.0
 42
0.5
 43
5.999999999999999
 44
2.999999999999999
 45
0.00000001
 46
10.0
 73
     0
 77
     1
 78
     8
 79
     2
140
5.25
143
0.03937
146
0.6666666666666666
147
0.75
171
     3
172
     1
176
   250
177
   250
178
   179
179
     2
271
     2
272
     2
274
     3
278
    44
285
     8
340
19A
371
    25
372
    25
  0
DIMSTYLE
105
1C6
330
A
100
AcDbSymbolTableRecord
100
AcDbDimStyleTableRecord
  2
BSI - Metodo 2Testo caratteri grandi$7
 70
     0
 41
5.0
 42
0.5
 43
5.999999999999999
 44
2.999999999999999
 45
0.00000001
 46
10.0
 73
     0
 77
     1
 78
     8
 79
     2
140
5.25
143
0.03937
146
0.6666666666666666
147
0.75
171
     3
172
     1
176
   179
177
   250
178
   179
179
     2
271
     2
272
     2
274
     3
278
    44
285
     8
340
19A
371
    25
372
    25
  0
DIMSTYLE
105
1D5
330
A
100
AcDbSymbolTableRecord
100
AcDbDimStyleTableRecord
  2
DEFAULT-GB
 70
     0
 41
4.0
 42
0.0
 43
5.999999999999999
 44
5.0
 45
0.00000001
 46
10.0
 73
     0
 74
     0
 77
     1
 78
     8
 79
     2
140
3.5
143
0.03937
147
0.75
171
     3
172
     1
176
   250
177
   250
178
   250
179
     3
271
     2
272
     2
274
     3
275
     1
285
     8
340
1A2
341
1C7
342
1C7
371
    25
372
    25
  0
DIMSTYLE
105
1D6
330
A
100
AcDbSymbolTableRecord
100
AcDbDimStyleTableRecord
  2
DEFAULT-GB$7
 70
     0
 41
4.0
 42
0.0
 43
5.999999999999999
 44
5.0
 45
0.00000001
 46
10.0
 73
     0
 74
     0
 77
     1
 78
     8
 79
     2
140
3.5
143
0.03937
147
0.75
171
     3
172
     1
176
   179
177
   250
178
   250
179
     3
271
     2
272
     2
274
     3
275
     1
285
     8
340
1A2
341
1C7
342
1C7
371
    25
372
    25
  0
DIMSTYLE
105
1D7
330
A
100
AcDbSymbolTableRecord
100
AcDbDimStyleTableRecord
  2
DEFAULT-GBTesto caratteri grandi
 70
     0
 41
8.0
 42
0.0
 43
5.999999999999999
 44
5.0
 45
0.00000001
 46
10.0
 73
     0
 74
     0
 77
     1
 78
     8
 79
     2
140
5.25
143
0.03937
146
0.6666666666666666
147
0.75
171
     3
172
     1
176
   250
177
   250
178
   179
179
     3
271
     2
272
     2
274
     3
275
     1
285
     8
340
1A0
341
1C7
342
1C7
371
    25
372
    25
  0
DIMSTYLE
105
1D8
330
A
100
AcDbSymbolTableRecord
100
AcDbDimStyleTableRecord
  2
DEFAULT-GBTesto caratteri grandi$7
 70
     0
 41
8.0
 42
0.0
 43
5.999999999999999
 44
5.0
 45
0.00000001
 46
10.0
 73
     0
 74
     0
 77
     1
 78
     8
 79
     2
140
5.25
143
0.03937
146
0.6666666666666666
147
0.75
171
     3
172
     1
176
   179
177
   250
178
   179
179
     3
271
     2
272
     2
274
     3
275
     1
285
     8
340
1A0
341
1C7
342
1C7
371
    25
372
    25
  0
DIMSTYLE
105
1D9
330
A
100
AcDbSymbolTableRecord
100
AcDbDimStyleTableRecord
  2
DEFAULT-JIS - Metodo 2
 70
     0
 41
2.5
 42
0.0
 43
5.999999999999999
 44
3.174999999999999
 45
0.00000001
 46
10.0
 77
     1
140
4.5
143
0.03937
147
0.8
171
     3
172
     1
176
   250
177
   250
178
   250
271
     2
272
     2
274
     3
340
1A6
341
1DA
342
1DA
371
    25
372
    25
  0
DIMSTYLE
105
1E0
330
A
100
AcDbSymbolTableRecord
100
AcDbDimStyleTableRecord
  2
DEFAULT-JIS - Metodo 2$7
 70
     0
 41
2.5
 42
0.0
 43
5.999999999999999
 44
3.174999999999999
 45
0.00000001
 46
10.0
 77
     1
140
4.5
143
0.03937
147
0.8
171
     3
172
     1
176
   179
177
   250
178
   250
271
     2
272
     2
274
     3
340
1A6
341
1DA
342
1DA
371
    25
372
    25
  0
DIMSTYLE
105
1E1
330
A
100
AcDbSymbolTableRecord
100
AcDbDimStyleTableRecord
  2
DEFAULT-JIS - Metodo 2Testo caratteri grandi
 70
     0
 41
5.0
 42
0.0
 43
5.999999999999999
 44
3.174999999999999
 45
0.00000001
 46
10.0
 77
     1
140
6.749999523162841
143
0.03937
146
0.666666713761698
147
0.8
171
     3
172
     1
176
   250
177
   250
178
   179
271
     2
272
     2
274
     3
340
1A8
341
1DA
342
1DA
371
    25
372
    25
  0
DIMSTYLE
105
1E2
330
A
100
AcDbSymbolTableRecord
100
AcDbDimStyleTableRecord
  2
DEFAULT-JIS - Metodo 2Testo caratteri grandi$7
 70
     0
 41
5.0
 42
0.0
 43
5.999999999999999
 44
3.174999999999999
 45
0.00000001
 46
10.0
 77
     1
140
6.749999523162841
143
0.03937
146
0.666666713761698
147
0.8
171
     3
172
     1
176
   179
177
   250
178
   179
271
     2
272
     2
274
     3
340
1A8
341
1DA
342
1DA
371
    25
372
    25
  0
DIMSTYLE
105
1E3
330
A
100
AcDbSymbolTableRecord
100
AcDbDimStyleTableRecord
  2
DIN - Altro
 70
     0
 41
2.5
 42
0.0
 43
5.999999999999999
 44
3.174999999999999
 45
0.00000001
 46
10.0
 77
     1
140
3.5
143
0.03937
147
0.8
171
     3
172
     1
176
   250
177
   250
178
   250
271
     2
272
     2
274
     3
278
    44
340
1A2
371
    25
372
    25
  0
DIMSTYLE
105
1E4
330
A
100
AcDbSymbolTableRecord
100
AcDbDimStyleTableRecord
  2
DIN - Altro$7
 70
     0
 41
2.5
 42
0.0
 43
5.999999999999999
 44
3.174999999999999
 45
0.00000001
 46
10.0
 77
     1
140
3.5
143
0.03937
147
0.8
171
     3
172
     1
176
   179
177
   250
178
   250
271
     2
272
     2
274
     3
278
    44
340
1A2
371
    25
372
    25
  0
DIMSTYLE
105
1E5
330
A
100
AcDbSymbolTableRecord
100
AcDbDimStyleTableRecord
  2
DIN - AltroTesto caratteri grandi
 70
     0
 41
5.0
 42
0.0
 43
5.999999999999999
 44
3.174999999999999
 45
0.00000001
 46
10.0
 77
     1
140
5.25
143
0.03937
146
0.6666666666666666
147
0.8
171
     3
172
     1
176
   250
177
   250
178
   179
271
     2
272
     2
274
     3
278
    44
340
19D
371
    25
372
    25
  0
DIMSTYLE
105
1E6
330
A
100
AcDbSymbolTableRecord
100
AcDbDimStyleTableRecord
  2
DIN - AltroTesto caratteri grandi$7
 70
     0
 41
5.0
 42
0.0
 43
5.999999999999999
 44
3.174999999999999
 45
0.00000001
 46
10.0
 77
     1
140
5.25
143
0.03937
146
0.6666666666666666
147
0.8
171
     3
172
     1
176
   179
177
   250
178
   179
271
     2
272
     2
274
     3
278
    44
340
19D
371
    25
372
    25
  0
DIMSTYLE
105
1E7
102
{ACAD_REACTORS
330
450
330
533
330
60F
330
6F1
330
7D2
330
8BA
330
99F
330
A5B
330
B3D
330
C13
330
CE9
330
DCB
330
EAD
330
F91
330
1067
330
1149
330
121F
330
1301
330
13D7
330
1508
330
15EC
330
16C4
330
179A
330
18CB
330
1AC3
102
}
330
A
100
AcDbSymbolTableRecord
100
AcDbDimStyleTableRecord
  2
MAURO
 70
     0
 41
2.5
 42
1.0
 43
10.0
 44
1.0
 45
0.00000001
 46
10.0
 73
     0
 77
     1
 78
     8
 79
     2
140
3.5
143
0.03937
146
0.7142857142857144
147
0.762
171
     3
172
     1
176
    96
177
    96
178
     7
179
     3
271
     3
272
     3
274
     3
284
     8
286
     8
340
192
371
    25
372
    25
  0
DIMSTYLE
105
1E8
330
A
100
AcDbSymbolTableRecord
100
AcDbDimStyleTableRecord
  2
MAURO$7
 70
     0
 41
2.5
 42
1.0
 43
10.0
 44
1.0
 45
0.00000001
 46
10.0
 73
     0
 77
     1
 78
     8
 79
     2
140
3.5
143
0.03937
146
0.7142857142857144
147
0.762
171
     3
172
     1
176
   179
177
    96
178
     7
179
     3
271
     3
272
     3
274
     3
284
     8
286
     8
340
192
371
    15
372
    25
  0
DIMSTYLE
105
1E9
330
A
100
AcDbSymbolTableRecord
100
AcDbDimStyleTableRecord
  2
MAUROTesto caratteri grandi
 70
     0
 41
5.0
 42
1.0
 43
10.0
 44
1.0
 45
0.00000001
 46
10.0
 73
     0
 77
     1
 78
     8
 79
     2
140
5.25
143
0.03937
146
0.4761904761904762
147
0.762
171
     3
172
     1
176
    96
177
    96
178
   179
179
     3
271
     3
272
     3
274
     3
284
     8
286
     8
340
1A4
371
    25
372
    25
  0
DIMSTYLE
105
1EA
330
A
100
AcDbSymbolTableRecord
100
AcDbDimStyleTableRecord
  2
MAUROTesto caratteri grandi$7
 70
     0
 41
5.0
 42
1.0
 43
10.0
 44
1.0
 45
0.00000001
 46
10.0
 73
     0
 77
     1
 78
     8
 79
     2
140
5.25
143
0.03937
146
0.4761904761904762
147
0.762
171
     3
172
     1
176
   179
177
    96
178
   179
179
     3
271
     3
272
     3
274
     3
284
     8
286
     8
340
1A4
371
    15
372
    25
  0
DIMSTYLE
105
1EB
330
A
100
AcDbSymbolTableRecord
100
AcDbDimStyleTableRecord
  2
X.XX pollici [mm]
 70
     0
  4
 mm
 41
2.5
 42
2.387599999999999
 43
6.349999999999999
 44
3.174999999999999
 45
0.00000001
 46
10.0
 73
     0
140
3.04800009727478
144
0.0393700787401575
147
1.600199999999999
170
     1
176
     7
177
     7
178
     7
179
     1
271
     3
272
     2
340
1C1
371
    25
372
    25
  0
DIMSTYLE
105
1EC
330
A
100
AcDbSymbolTableRecord
100
AcDbDimStyleTableRecord
  2
X.XX pollici [mm]$7
 70
     0
  4
 mm
 41
2.5
 42
2.387599999999999
 43
6.349999999999999
 44
3.174999999999999
 45
0.00000001
 46
10.0
 73
     0
140
3.04800009727478
144
0.0393700787401575
147
1.600199999999999
170
     1
176
   179
177
     7
178
     7
179
     1
271
     3
272
     2
340
1C1
371
    25
372
    25
  0
DIMSTYLE
105
1ED
330
A
100
AcDbSymbolTableRecord
100
AcDbDimStyleTableRecord
  2
X.XX pollici [mm]Testo caratteri grandi
 70
     0
  4
 mm
 41
5.0
 42
2.387599999999999
 43
6.349999999999999
 44
3.174999999999999
 45
0.00000001
 46
10.0
 73
     0
140
4.57200002670288
144
0.0393700787401575
146
0.6666666840491819
147
1.600199999999999
170
     1
176
     7
177
     7
178
   179
179
     1
271
     3
272
     2
340
197
371
    25
372
    25
  0
DIMSTYLE
105
1EE
330
A
100
AcDbSymbolTableRecord
100
AcDbDimStyleTableRecord
  2
X.XX pollici [mm]Testo caratteri grandi$7
 70
     0
  4
 mm
 41
5.0
 42
2.387599999999999
 43
6.349999999999999
 44
3.174999999999999
 45
0.00000001
 46
10.0
 73
     0
140
4.57200002670288
144
0.0393700787401575
146
0.6666666840491819
147
1.600199999999999
170
     1
176
   179
177
     7
178
   179
179
     1
271
     3
272
     2
340
197
371
    25
372
    25
  0
DIMSTYLE
105
1EF
330
A
100
AcDbSymbolTableRecord
100
AcDbDimStyleTableRecord
  2
1_32 FRAZIONE
 70
     0
 41
2.5
340
60
342
1F0
  0
DIMSTYLE
105
1F7
330
A
100
AcDbSymbolTableRecord
100
AcDbDimStyleTableRecord
  2
1_64 FRAZIONE
 70
     0
 41
2.5
340
60
342
1F0
  0
DIMSTYLE
105
1F8
102
{ACAD_REACTORS
330
1D2A
102
}
330
A
100
AcDbSymbolTableRecord
100
AcDbDimStyleTableRecord
  2
AM_ISO
 70
     0
 41
2.5
340
60
342
1F0
  0
DIMSTYLE
105
1F9
330
A
100
AcDbSymbolTableRecord
100
AcDbDimStyleTableRecord
  2
AM_ISO$3
 70
     0
 41
2.5
340
60
342
1F0
  0
DIMSTYLE
105
1FA
330
A
100
AcDbSymbolTableRecord
100
AcDbDimStyleTableRecord
  2
AM_ISO$4
 70
     0
 41
2.5
340
60
342
1F0
  0
DIMSTYLE
105
1FB
330
A
100
AcDbSymbolTableRecord
100
AcDbDimStyleTableRecord
  2
AM_ISO$6
 70
     0
 41
2.5
340
60
342
1F0
  0
DIMSTYLE
105
1FC
330
A
100
AcDbSymbolTableRecord
100
AcDbDimStyleTableRecord
  2
AM_ISO$7
 70
     0
 41
2.5
340
60
342
1F0
  0
DIMSTYLE
105
1FD
330
A
100
AcDbSymbolTableRecord
100
AcDbDimStyleTableRecord
  2
AM_ISO$SF
 70
     0
 41
2.5
340
60
342
1F0
  0
DIMSTYLE
105
1FE
330
A
100
AcDbSymbolTableRecord
100
AcDbDimStyleTableRecord
  2
AM_ISO$SH
 70
     0
 41
2.5
340
60
342
1F0
  0
DIMSTYLE
105
1FF
330
A
100
AcDbSymbolTableRecord
100
AcDbDimStyleTableRecord
  2
ANSI ALLINEATI
 70
     0
 41
2.5
340
60
342
1F0
  0
DIMSTYLE
105
200
330
A
100
AcDbSymbolTableRecord
100
AcDbDimStyleTableRecord
  2
ANSI FRAZIONE - ALLINEATI
 70
     0
 41
2.5
340
60
342
1F0
  0
DIMSTYLE
105
201
330
A
100
AcDbSymbolTableRecord
100
AcDbDimStyleTableRecord
  2
CADMEC_1-1
 70
     0
 41
2.5
340
60
342
1F0
  0
DIMSTYLE
105
202
330
A
100
AcDbSymbolTableRecord
100
AcDbDimStyleTableRecord
  2
DEFAULT-ANSI
 70
     0
 41
2.5
340
60
342
1F0
  0
DIMSTYLE
105
203
330
A
100
AcDbSymbolTableRecord
100
AcDbDimStyleTableRecord
  2
DEFAULT-ANSI FRAZIONE
 70
     0
 41
2.5
340
60
342
1F0
  0
DIMSTYLE
105
204
330
A
100
AcDbSymbolTableRecord
100
AcDbDimStyleTableRecord
  2
DEFAULT-BSI
 70
     0
 41
2.5
340
60
342
1F0
  0
DIMSTYLE
105
205
330
A
100
AcDbSymbolTableRecord
100
AcDbDimStyleTableRecord
  2
DEFAULT-DIN
 70
     0
 41
2.5
340
60
342
1F0
  0
DIMSTYLE
105
206
330
A
100
AcDbSymbolTableRecord
100
AcDbDimStyleTableRecord
  2
DEFAULT-DIN - Metodo 2a
 70
     0
 41
2.5
340
60
342
1F0
  0
DIMSTYLE
105
207
330
A
100
AcDbSymbolTableRecord
100
AcDbDimStyleTableRecord
  2
DEFAULT-DIN - Metodo 2b
 70
     0
 41
2.5
340
60
342
1F0
  0
DIMSTYLE
105
208
330
A
100
AcDbSymbolTableRecord
100
AcDbDimStyleTableRecord
  2
DEFAULT-ISO
 70
     0
 41
2.5
340
60
342
1F0
  0
DIMSTYLE
105
209
330
A
100
AcDbSymbolTableRecord
100
AcDbDimStyleTableRecord
  2
DEFAULT-ISO-Metodo 1b
 70
     0
 41
2.5
340
60
342
1F0
  0
DIMSTYLE
105
20A
330
A
100
AcDbSymbolTableRecord
100
AcDbDimStyleTableRecord
  2
DEFAULT-ISO-Metodo 2a
 70
     0
 41
2.5
340
60
342
1F0
  0
DIMSTYLE
105
20B
330
A
100
AcDbSymbolTableRecord
100
AcDbDimStyleTableRecord
  2
DEFAULT-ISO-Metodo 2b
 70
     0
 41
2.5
340
60
342
1F0
  0
DIMSTYLE
105
20C
330
A
100
AcDbSymbolTableRecord
100
AcDbDimStyleTableRecord
  2
DEFAULT-JIS
 70
     0
 41
2.5
340
60
342
1F0
  0
DIMSTYLE
105
20D
330
A
100
AcDbSymbolTableRecord
100
AcDbDimStyleTableRecord
  2
DEFAULT-JIS - Metodo 1b
 70
     0
 41
2.5
340
60
342
1F0
  0
DIMSTYLE
105
20E
330
A
100
AcDbSymbolTableRecord
100
AcDbDimStyleTableRecord
  2
Direttrice-Indicatore origine(ANSI)
 70
     0
 41
2.5
340
60
342
1F0
  0
DIMSTYLE
105
20F
330
A
100
AcDbSymbolTableRecord
100
AcDbDimStyleTableRecord
  2
Direttrice-Indicatore origine(BSI)
 70
     0
 41
2.5
340
60
342
1F0
  0
DIMSTYLE
105
210
330
A
100
AcDbSymbolTableRecord
100
AcDbDimStyleTableRecord
  2
Direttrice-Indicatore origine(DIN)
 70
     0
 41
2.5
340
60
342
1F0
  0
DIMSTYLE
105
211
330
A
100
AcDbSymbolTableRecord
100
AcDbDimStyleTableRecord
  2
Direttrice-Indicatore origine(GB)
 70
     0
 41
4.0
340
60
342
1F0
  0
DIMSTYLE
105
212
330
A
100
AcDbSymbolTableRecord
100
AcDbDimStyleTableRecord
  2
Direttrice-Indicatore origine(ISO)
 70
     0
 41
2.5
340
60
342
1F0
  0
DIMSTYLE
105
213
330
A
100
AcDbSymbolTableRecord
100
AcDbDimStyleTableRecord
  2
Direttrice-Indicatore origine(JIS)
 70
     0
 41
2.5
340
60
342
1F0
  0
DIMSTYLE
105
214
330
A
100
AcDbSymbolTableRecord
100
AcDbDimStyleTableRecord
  2
Direttrice-punto(ANSI)
 70
     0
 41
2.5
340
60
342
1F0
  0
DIMSTYLE
105
215
330
A
100
AcDbSymbolTableRecord
100
AcDbDimStyleTableRecord
  2
Direttrice-punto(BSI)
 70
     0
 41
2.5
340
60
342
1F0
  0
DIMSTYLE
105
216
330
A
100
AcDbSymbolTableRecord
100
AcDbDimStyleTableRecord
  2
Direttrice-punto(DIN)
 70
     0
 41
2.5
340
60
342
1F0
  0
DIMSTYLE
105
217
330
A
100
AcDbSymbolTableRecord
100
AcDbDimStyleTableRecord
  2
Direttrice-punto(GB)
 70
     0
 41
4.0
340
60
342
1F0
  0
DIMSTYLE
105
218
330
A
100
AcDbSymbolTableRecord
100
AcDbDimStyleTableRecord
  2
Direttrice-punto(ISO)
 70
     0
 41
2.5
340
60
342
1F0
  0
DIMSTYLE
105
219
330
A
100
AcDbSymbolTableRecord
100
AcDbDimStyleTableRecord
  2
Direttrice-punto(JIS)
 70
     0
 41
2.5
340
60
342
1F0
  0
DIMSTYLE
105
224
330
A
100
AcDbSymbolTableRecord
100
AcDbDimStyleTableRecord
  2
Direttrice-riferimento(ANSI)
 70
     0
 41
2.5
340
60
342
1F0
  0
DIMSTYLE
105
225
330
A
100
AcDbSymbolTableRecord
100
AcDbDimStyleTableRecord
  2
Direttrice-riferimento(BSI)
 70
     0
 41
2.5
340
60
342
1F0
  0
DIMSTYLE
105
226
330
A
100
AcDbSymbolTableRecord
100
AcDbDimStyleTableRecord
  2
Direttrice-riferimento(DIN)
 70
     0
 41
2.5
340
60
342
1F0
  0
DIMSTYLE
105
248
330
A
100
AcDbSymbolTableRecord
100
AcDbDimStyleTableRecord
  2
Direttrice-riferimento(GB)
 70
     0
 41
4.0
340
60
342
1F0
  0
DIMSTYLE
105
249
330
A
100
AcDbSymbolTableRecord
100
AcDbDimStyleTableRecord
  2
Direttrice-riferimento(ISO)
 70
     0
 41
2.5
340
60
342
1F0
  0
DIMSTYLE
105
24A
330
A
100
AcDbSymbolTableRecord
100
AcDbDimStyleTableRecord
  2
Direttrice-riferimento(JIS)
 70
     0
 41
2.5
340
60
342
1F0
  0
DIMSTYLE
105
24B
330
A
100
AcDbSymbolTableRecord
100
AcDbDimStyleTableRecord
  2
Direttrice(ANSI)
 70
     0
 41
2.5
340
60
342
1F0
  0
DIMSTYLE
105
24C
330
A
100
AcDbSymbolTableRecord
100
AcDbDimStyleTableRecord
  2
Direttrice(BSI)
 70
     0
 41
2.5
340
60
342
1F0
  0
DIMSTYLE
105
24D
330
A
100
AcDbSymbolTableRecord
100
AcDbDimStyleTableRecord
  2
Direttrice(DIN)
 70
     0
 41
2.5
340
60
342
1F0
  0
DIMSTYLE
105
24E
330
A
100
AcDbSymbolTableRecord
100
AcDbDimStyleTableRecord
  2
Direttrice(GB)
 70
     0
 41
4.0
340
60
342
1F0
  0
DIMSTYLE
105
24F
330
A
100
AcDbSymbolTableRecord
100
AcDbDimStyleTableRecord
  2
Direttrice(ISO)
 70
     0
 41
2.5
340
60
342
1F0
  0
DIMSTYLE
105
250
330
A
100
AcDbSymbolTableRecord
100
AcDbDimStyleTableRecord
  2
Direttrice(JIS)
 70
     0
 41
2.5
340
60
342
1F0
  0
DIMSTYLE
105
251
330
A
100
AcDbSymbolTableRecord
100
AcDbDimStyleTableRecord
  2
GEN-ISO
 70
     0
 41
2.5
340
60
342
1F0
  0
DIMSTYLE
105
252
330
A
100
AcDbSymbolTableRecord
100
AcDbDimStyleTableRecord
  2
GEN-ISO-AXE-F
 70
     0
 41
2.5
340
60
342
1F0
  0
DIMSTYLE
105
253
330
A
100
AcDbSymbolTableRecord
100
AcDbDimStyleTableRecord
  2
GEN-ISO-AXE-H
 70
     0
 41
2.5
340
60
342
1F0
  0
DIMSTYLE
105
254
330
A
100
AcDbSymbolTableRecord
100
AcDbDimStyleTableRecord
  2
GEN-ISO-POS
 70
     0
 41
2.5
340
60
342
1F0
  0
DIMSTYLE
105
255
330
A
100
AcDbSymbolTableRecord
100
AcDbDimStyleTableRecord
  2
GEN-ISO$3
 70
     0
 41
2.5
340
60
342
1F0
  0
DIMSTYLE
105
256
330
A
100
AcDbSymbolTableRecord
100
AcDbDimStyleTableRecord
  2
GEN-ISO$4
 70
     0
 41
2.5
340
60
342
1F0
  0
DIMSTYLE
105
257
330
A
100
AcDbSymbolTableRecord
100
AcDbDimStyleTableRecord
  2
GEN-ISO$6
 70
     0
 41
2.5
340
60
342
1F0
  0
DIMSTYLE
105
258
330
A
100
AcDbSymbolTableRecord
100
AcDbDimStyleTableRecord
  2
ISO-25
 70
     0
 41
2.5
340
60
342
1F0
  0
DIMSTYLE
105
259
330
A
100
AcDbSymbolTableRecord
100
AcDbDimStyleTableRecord
  2
ISO-35
 70
     0
 41
2.5
340
60
342
1F0
  0
DIMSTYLE
105
25A
330
A
100
AcDbSymbolTableRecord
100
AcDbDimStyleTableRecord
  2
ISO-5
 70
     0
 41
2.5
340
60
342
1F0
  0
DIMSTYLE
105
25B
330
A
100
AcDbSymbolTableRecord
100
AcDbDimStyleTableRecord
  2
ISO-7
 70
     0
 41
2.5
340
60
342
1F0
  0
DIMSTYLE
105
25C
330
A
100
AcDbSymbolTableRecord
100
AcDbDimStyleTableRecord
  2
ISO1
 70
     0
 41
2.5
340
60
342
1F0
  0
DIMSTYLE
105
25D
330
A
100
AcDbSymbolTableRecord
100
AcDbDimStyleTableRecord
  2
ISO1-4
 70
     0
 41
2.5
340
60
342
1F0
  0
DIMSTYLE
105
25E
330
A
100
AcDbSymbolTableRecord
100
AcDbDimStyleTableRecord
  2
ISO2
 70
     0
 41
2.5
340
60
342
1F0
  0
DIMSTYLE
105
25F
330
A
100
AcDbSymbolTableRecord
100
AcDbDimStyleTableRecord
  2
MM-ANSI
 70
     0
 41
2.5
340
60
342
1F0
  0
DIMSTYLE
105
260
330
A
100
AcDbSymbolTableRecord
100
AcDbDimStyleTableRecord
  2
X . XXX
 70
     0
 41
2.5
340
60
342
1F0
  0
DIMSTYLE
105
261
330
A
100
AcDbSymbolTableRecord
100
AcDbDimStyleTableRecord
  2
X.X spazio grande e testo
 70
     0
 41
2.5
340
60
342
1F0
  0
DIMSTYLE
105
262
330
A
100
AcDbSymbolTableRecord
100
AcDbDimStyleTableRecord
  2
X.XX mm [pollici]
 70
     0
 41
2.5
340
60
342
1F0
  0
DIMSTYLE
105
263
330
A
100
AcDbSymbolTableRecord
100
AcDbDimStyleTableRecord
  2
X.XX Tol. di scostamento
 70
     0
 41
2.5
340
60
342
1F0
  0
DIMSTYLE
105
264
330
A
100
AcDbSymbolTableRecord
100
AcDbDimStyleTableRecord
  2
X.XXX
 70
     0
 41
2.5
340
60
342
1F0
  0
DIMSTYLE
105
265
330
A
100
AcDbSymbolTableRecord
100
AcDbDimStyleTableRecord
  2
X.XXX +_- tolleranza
 70
     0
 41
2.5
340
60
342
1F0
  0
DIMSTYLE
105
266
330
A
100
AcDbSymbolTableRecord
100
AcDbDimStyleTableRecord
  2
X.XXX +tolleranza_-tolleranza
 70
     0
 41
2.5
340
60
342
1F0
  0
DIMSTYLE
105
267
330
A
100
AcDbSymbolTableRecord
100
AcDbDimStyleTableRecord
  2
X.XXX Limiti - Impilati
 70
     0
 41
2.5
340
60
342
1F0
  0
DIMSTYLE
105
268
330
A
100
AcDbSymbolTableRecord
100
AcDbDimStyleTableRecord
  2
X.XXX mm [pollici]
 70
     0
 41
2.5
340
60
342
1F0
  0
DIMSTYLE
105
269
330
A
100
AcDbSymbolTableRecord
100
AcDbDimStyleTableRecord
  2
X.XXX piccola tolleranza
 70
     0
 41
2.5
340
60
342
1F0
  0
DIMSTYLE
105
26A
330
A
100
AcDbSymbolTableRecord
100
AcDbDimStyleTableRecord
  2
X.XXX radiale
 70
     0
 41
2.5
340
60
342
1F0
  0
ENDTAB
  0
TABLE
  2
BLOCK_RECORD
  5
1
330
0
100
AcDbSymbolTable
 70
    38
  0
BLOCK_RECORD
  5
77
330
1
100
AcDbSymbolTableRecord
100
AcDbBlockTableRecord
  2
*Model_Space
340
7A
  0
BLOCK_RECORD
  5
73
330
1
100
AcDbSymbolTableRecord
100
AcDbBlockTableRecord
  2
*Paper_Space
340
76
  0
BLOCK_RECORD
  5
7B
330
1
100
AcDbSymbolTableRecord
100
AcDbBlockTableRecord
  2
*Paper_Space0
340
7E
  0
BLOCK_RECORD
  5
1C7
330
1
100
AcDbSymbolTableRecord
100
AcDbBlockTableRecord
  2
Filled-1
340
0
  0
BLOCK_RECORD
  5
1DA
330
1
100
AcDbSymbolTableRecord
100
AcDbBlockTableRecord
  2
_Open
340
0
  0
BLOCK_RECORD
  5
1F0
330
1
100
AcDbSymbolTableRecord
100
AcDbBlockTableRecord
  2
_Closed
340
0
  0
BLOCK_RECORD
  5
21A
330
1
100
AcDbSymbolTableRecord
100
AcDbBlockTableRecord
  2
DatumFilled45
340
0
  0
BLOCK_RECORD
  5
227
330
1
100
AcDbSymbolTableRecord
100
AcDbBlockTableRecord
  2
DatumThickLine
340
0
  0
BLOCK_RECORD
  5
26B
330
1
100
AcDbSymbolTableRecord
100
AcDbBlockTableRecord
  2
REVISIONE
340
0
  0
BLOCK_RECORD
  5
28A
330
1
100
AcDbSymbolTableRecord
100
AcDbBlockTableRecord
  2
TIMBRO PER APPROVAZIONE
340
0
  0
BLOCK_RECORD
  5
299
330
1
100
AcDbSymbolTableRecord
100
AcDbBlockTableRecord
  2
TIMBRO INVIO DISEGNI
340
0
  0
BLOCK_RECORD
  5
2A4
330
1
100
AcDbSymbolTableRecord
100
AcDbBlockTableRecord
  2
Bordi Default Border
340
0
  0
BLOCK_RECORD
  5
2FB
330
1
100
AcDbSymbolTableRecord
100
AcDbBlockTableRecord
  2
Cartigli COMUNELLO
340
0
  0
BLOCK_RECORD
  5
452
330
1
100
AcDbSymbolTableRecord
100
AcDbBlockTableRecord
  2
*D11
340
0
  0
BLOCK_RECORD
  5
534
330
1
100
AcDbSymbolTableRecord
100
AcDbBlockTableRecord
  2
*D12
340
0
  0
BLOCK_RECORD
  5
610
330
1
100
AcDbSymbolTableRecord
100
AcDbBlockTableRecord
  2
*D13
340
0
  0
BLOCK_RECORD
  5
6F2
330
1
100
AcDbSymbolTableRecord
100
AcDbBlockTableRecord
  2
*D14
340
0
  0
BLOCK_RECORD
  5
7D3
330
1
100
AcDbSymbolTableRecord
100
AcDbBlockTableRecord
  2
*D15
340
0
  0
BLOCK_RECORD
  5
8BB
330
1
100
AcDbSymbolTableRecord
100
AcDbBlockTableRecord
  2
*D16
340
0
  0
BLOCK_RECORD
  5
9A0
330
1
100
AcDbSymbolTableRecord
100
AcDbBlockTableRecord
  2
*D17
340
0
  0
BLOCK_RECORD
  5
A5C
330
1
100
AcDbSymbolTableRecord
100
AcDbBlockTableRecord
  2
*D18
340
0
  0
BLOCK_RECORD
  5
B3E
330
1
100
AcDbSymbolTableRecord
100
AcDbBlockTableRecord
  2
*D19
340
0
  0
BLOCK_RECORD
  5
C14
330
1
100
AcDbSymbolTableRecord
100
AcDbBlockTableRecord
  2
*D20
340
0
  0
BLOCK_RECORD
  5
CEA
330
1
100
AcDbSymbolTableRecord
100
AcDbBlockTableRecord
  2
*D21
340
0
  0
BLOCK_RECORD
  5
DCC
330
1
100
AcDbSymbolTableRecord
100
AcDbBlockTableRecord
  2
*D22
340
0
  0
BLOCK_RECORD
  5
EAE
330
1
100
AcDbSymbolTableRecord
100
AcDbBlockTableRecord
  2
*D23
340
0
  0
BLOCK_RECORD
  5
F92
330
1
100
AcDbSymbolTableRecord
100
AcDbBlockTableRecord
  2
*D24
340
0
  0
BLOCK_RECORD
  5
1068
330
1
100
AcDbSymbolTableRecord
100
AcDbBlockTableRecord
  2
*D25
340
0
  0
BLOCK_RECORD
  5
114A
330
1
100
AcDbSymbolTableRecord
100
AcDbBlockTableRecord
  2
*D26
340
0
  0
BLOCK_RECORD
  5
1220
330
1
100
AcDbSymbolTableRecord
100
AcDbBlockTableRecord
  2
*D27
340
0
  0
BLOCK_RECORD
  5
1302
330
1
100
AcDbSymbolTableRecord
100
AcDbBlockTableRecord
  2
*D28
340
0
  0
BLOCK_RECORD
  5
13D8
330
1
100
AcDbSymbolTableRecord
100
AcDbBlockTableRecord
  2
*D29
340
0
  0
BLOCK_RECORD
  5
1509
330
1
100
AcDbSymbolTableRecord
100
AcDbBlockTableRecord
  2
*D30
340
0
  0
BLOCK_RECORD
  5
15ED
330
1
100
AcDbSymbolTableRecord
100
AcDbBlockTableRecord
  2
*D31
340
0
  0
BLOCK_RECORD
  5
16C5
330
1
100
AcDbSymbolTableRecord
100
AcDbBlockTableRecord
  2
*D32
340
0
  0
BLOCK_RECORD
  5
179B
330
1
100
AcDbSymbolTableRecord
100
AcDbBlockTableRecord
  2
*D33
340
0
  0
BLOCK_RECORD
  5
18CC
330
1
100
AcDbSymbolTableRecord
100
AcDbBlockTableRecord
  2
*D34
340
0
  0
BLOCK_RECORD
  5
19B4
330
1
100
AcDbSymbolTableRecord
100
AcDbBlockTableRecord
  2
*D35
340
0
  0
BLOCK_RECORD
  5
1AC4
330
1
100
AcDbSymbolTableRecord
100
AcDbBlockTableRecord
  2
*D36
340
0
  0
ENDTAB
  0
ENDSEC
  0
SECTION
  2
BLOCKS
  0
BLOCK
  5
78
330
77
100
AcDbEntity
  8
0
100
AcDbBlockBegin
  2
*Model_Space
 70
     0
 10
0.0
 20
0.0
 30
0.0
  3
*Model_Space
  1

  0
ENDBLK
  5
79
330
77
100
AcDbEntity
  8
0
100
AcDbBlockEnd
  0
BLOCK
  5
74
330
73
100
AcDbEntity
 67
     1
  8
0
100
AcDbBlockBegin
  2
*Paper_Space
 70
     0
 10
0.0
 20
0.0
 30
0.0
  3
*Paper_Space
  1

  0
ENDBLK
  5
75
330
73
100
AcDbEntity
 67
     1
  8
0
100
AcDbBlockEnd
  0
BLOCK
  5
7C
330
7B
100
AcDbEntity
 67
     1
  8
0
100
AcDbBlockBegin
  2
*Paper_Space0
 70
     0
 10
0.0
 20
0.0
 30
0.0
  3
*Paper_Space0
  1

  0
ENDBLK
  5
7D
330
7B
100
AcDbEntity
 67
     1
  8
0
100
AcDbBlockEnd
  0
BLOCK
  5
1C8
330
1C7
100
AcDbEntity
  8
0
100
AcDbBlockBegin
  2
Filled-1
 70
     0
 10
0.0
 20
0.0
 30
0.0
  3
Filled-1
  1

  0
LINE
  5
1CA
330
1C7
100
AcDbEntity
  8
0
 62
     0
100
AcDbLine
 10
-1.0
 20
0.0
 30
0.0
 11
0.0
 21
0.0
 31
0.0
  0
POLYLINE
  5
1CB
330
1C7
100
AcDbEntity
  8
0
 62
     0
100
AcDb2dPolyline
 66
     1
 10
0.0
 20
0.0
 30
0.0
 70
   128
  0
VERTEX
  5
1CC
330
1CB
100
AcDbEntity
  8
0
 62
     0
100
AcDbVertex
100
AcDb2dVertex
 10
-1.0
 20
-0.125
 30
0.0
  0
VERTEX
  5
1CD
330
1CB
100
AcDbEntity
  8
0
 62
     0
100
AcDbVertex
100
AcDb2dVertex
 10
0.0
 20
0.0
 30
0.0
  0
VERTEX
  5
1CF
330
1CB
100
AcDbEntity
  8
0
 62
     0
100
AcDbVertex
100
AcDb2dVertex
 10
-1.0
 20
0.125
 30
0.0
  0
VERTEX
  5
1D0
330
1CB
100
AcDbEntity
  8
0
 62
     0
100
AcDbVertex
100
AcDb2dVertex
 10
-1.0
 20
-0.125
 30
0.0
  0
SEQEND
  5
1CE
330
1CB
100
AcDbEntity
  8
0
 62
     0
  0
SOLID
  5
1D1
330
1C7
100
AcDbEntity
  8
0
 62
     0
100
AcDbTrace
 10
-1.0
 20
-0.125
 30
0.0
 11
0.0
 21
0.0
 31
0.0
 12
-1.0
 22
0.125
 32
0.0
 13
-1.0
 23
-0.125
 33
0.0
  0
LINE
  5
1D2
330
1C7
100
AcDbEntity
  8
0
 62
     0
100
AcDbLine
 10
-1.0
 20
-0.125
 30
0.0
 11
0.0
 21
0.0
 31
0.0
  0
LINE
  5
1D3
330
1C7
100
AcDbEntity
  8
0
 62
     0
100
AcDbLine
 10
0.0
 20
0.0
 30
0.0
 11
-1.0
 21
0.125
 31
0.0
  0
LINE
  5
1D4
330
1C7
100
AcDbEntity
  8
0
 62
     0
100
AcDbLine
 10
-1.0
 20
0.125
 30
0.0
 11
-1.0
 21
-0.125
 31
0.0
  0
ENDBLK
  5
1C9
330
1C7
100
AcDbEntity
  8
0
100
AcDbBlockEnd
  0
BLOCK
  5
1DE
330
1DA
100
AcDbEntity
  8
0
100
AcDbBlockBegin
  2
_Open
 70
     0
 10
0.0
 20
0.0
 30
0.0
  3
_Open
  1

  0
LINE
  5
1DB
330
1DA
100
AcDbEntity
  8
0
  6
ByBlock
 62
     0
370
    -2
100
AcDbLine
 10
-1.0
 20
0.1666666666666666
 30
0.0
 11
0.0
 21
0.0
 31
0.0
  0
LINE
  5
1DC
330
1DA
100
AcDbEntity
  8
0
  6
ByBlock
 62
     0
370
    -2
100
AcDbLine
 10
-1.0
 20
-0.1666666666666666
 30
0.0
 11
0.0
 21
0.0
 31
0.0
  0
LINE
  5
1DD
330
1DA
100
AcDbEntity
  8
0
  6
ByBlock
 62
     0
370
    -2
100
AcDbLine
 10
0.0
 20
0.0
 30
0.0
 11
-1.0
 21
0.0
 31
0.0
  0
ENDBLK
  5
1DF
330
1DA
100
AcDbEntity
  8
0
100
AcDbBlockEnd
  0
BLOCK
  5
1F5
330
1F0
100
AcDbEntity
  8
0
100
AcDbBlockBegin
  2
_Closed
 70
     0
 10
0.0
 20
0.0
 30
0.0
  3
_Closed
  1

  0
LINE
  5
1F1
330
1F0
100
AcDbEntity
  8
0
  6
ByBlock
 62
     0
370
    -2
100
AcDbLine
 10
-1.0
 20
0.1666666666666666
 30
0.0
 11
0.0
 21
0.0
 31
0.0
  0
LINE
  5
1F2
330
1F0
100
AcDbEntity
  8
0
  6
ByBlock
 62
     0
370
    -2
100
AcDbLine
 10
0.0
 20
0.0
 30
0.0
 11
-1.0
 21
-0.1666666666666666
 31
0.0
  0
LINE
  5
1F3
330
1F0
100
AcDbEntity
  8
0
  6
ByBlock
 62
     0
370
    -2
100
AcDbLine
 10
-1.0
 20
0.1666666666666666
 30
0.0
 11
-1.0
 21
-0.1666666666666666
 31
0.0
  0
LINE
  5
1F4
330
1F0
100
AcDbEntity
  8
0
  6
ByBlock
 62
     0
370
    -2
100
AcDbLine
 10
0.0
 20
0.0
 30
0.0
 11
-1.0
 21
0.0
 31
0.0
  0
ENDBLK
  5
1F6
330
1F0
100
AcDbEntity
  8
0
100
AcDbBlockEnd
  0
BLOCK
  5
21B
330
21A
100
AcDbEntity
  8
0
100
AcDbBlockBegin
  2
DatumFilled45
 70
     0
 10
0.0
 20
0.0
 30
0.0
  3
DatumFilled45
  1

  0
POLYLINE
  5
21D
330
21A
100
AcDbEntity
  8
0
 62
     0
100
AcDb2dPolyline
 66
     1
 10
0.0
 20
0.0
 30
0.0
 70
   128
  0
VERTEX
  5
21E
330
21D
100
AcDbEntity
  8
0
 62
     0
100
AcDbVertex
100
AcDb2dVertex
 10
0.0
 20
1.0
 30
0.0
  0
VERTEX
  5
21F
330
21D
100
AcDbEntity
  8
0
 62
     0
100
AcDbVertex
100
AcDb2dVertex
 10
0.0
 20
-1.0
 30
0.0
  0
VERTEX
  5
221
330
21D
100
AcDbEntity
  8
0
 62
     0
100
AcDbVertex
100
AcDb2dVertex
 10
-1.0
 20
0.0
 30
0.0
  0
VERTEX
  5
222
330
21D
100
AcDbEntity
  8
0
 62
     0
100
AcDbVertex
100
AcDb2dVertex
 10
0.0
 20
1.0
 30
0.0
  0
SEQEND
  5
220
330
21D
100
AcDbEntity
  8
0
 62
     0
  0
SOLID
  5
223
330
21A
100
AcDbEntity
  8
0
 62
     0
100
AcDbTrace
 10
0.0
 20
1.0
 30
0.0
 11
0.0
 21
-1.0
 31
0.0
 12
-1.0
 22
0.0
 32
0.0
 13
0.0
 23
1.0
 33
0.0
  0
ENDBLK
  5
21C
330
21A
100
AcDbEntity
  8
0
100
AcDbBlockEnd
  0
BLOCK
  5
228
330
227
100
AcDbEntity
  8
0
100
AcDbBlockBegin
  2
DatumThickLine
 70
     0
 10
0.0
 20
0.0
 30
0.0
  3
DatumThickLine
  1

  0
POLYLINE
  5
22A
330
227
100
AcDbEntity
  8
0
 62
     0
100
AcDb2dPolyline
 66
     1
 10
0.0
 20
0.0
 30
0.0
 70
   128
  0
VERTEX
  5
22B
330
22A
100
AcDbEntity
  8
0
 62
     0
100
AcDbVertex
100
AcDb2dVertex
 10
-0.25
 20
1.0
 30
0.0
  0
VERTEX
  5
22C
330
22A
100
AcDbEntity
  8
0
 62
     0
100
AcDbVertex
100
AcDb2dVertex
 10
-0.25
 20
-1.0
 30
0.0
  0
VERTEX
  5
22E
330
22A
100
AcDbEntity
  8
0
 62
     0
100
AcDbVertex
100
AcDb2dVertex
 10
-0.5
 20
-1.0
 30
0.0
  0
VERTEX
  5
22F
330
22A
100
AcDbEntity
  8
0
 62
     0
100
AcDbVertex
100
AcDb2dVertex
 10
-0.25
 20
1.0
 30
0.0
  0
SEQEND
  5
22D
330
22A
100
AcDbEntity
  8
0
 62
     0
  0
SOLID
  5
230
330
227
100
AcDbEntity
  8
0
 62
     0
100
AcDbTrace
 10
-0.25
 20
1.0
 30
0.0
 11
-0.25
 21
-1.0
 31
0.0
 12
-0.5
 22
-1.0
 32
0.0
 13
-0.25
 23
1.0
 33
0.0
  0
POLYLINE
  5
231
330
227
100
AcDbEntity
  8
0
 62
     0
100
AcDb2dPolyline
 66
     1
 10
0.0
 20
0.0
 30
0.0
 70
   128
  0
VERTEX
  5
232
330
231
100
AcDbEntity
  8
0
 62
     0
100
AcDbVertex
100
AcDb2dVertex
 10
-0.25
 20
1.0
 30
0.0
  0
VERTEX
  5
233
330
231
100
AcDbEntity
  8
0
 62
     0
100
AcDbVertex
100
AcDb2dVertex
 10
-0.5
 20
-1.0
 30
0.0
  0
VERTEX
  5
235
330
231
100
AcDbEntity
  8
0
 62
     0
100
AcDbVertex
100
AcDb2dVertex
 10
-0.5
 20
-1.0
 30
0.0
  0
VERTEX
  5
236
330
231
100
AcDbEntity
  8
0
 62
     0
100
AcDbVertex
100
AcDb2dVertex
 10
-0.25
 20
1.0
 30
0.0
  0
SEQEND
  5
234
330
231
100
AcDbEntity
  8
0
 62
     0
  0
SOLID
  5
237
330
227
100
AcDbEntity
  8
0
 62
     0
100
AcDbTrace
 10
-0.25
 20
1.0
 30
0.0
 11
-0.5
 21
-1.0
 31
0.0
 12
-0.5
 22
-1.0
 32
0.0
 13
-0.25
 23
1.0
 33
0.0
  0
POLYLINE
  5
238
330
227
100
AcDbEntity
  8
0
 62
     0
100
AcDb2dPolyline
 66
     1
 10
0.0
 20
0.0
 30
0.0
 70
   128
  0
VERTEX
  5
239
330
238
100
AcDbEntity
  8
0
 62
     0
100
AcDbVertex
100
AcDb2dVertex
 10
-0.25
 20
1.0
 30
0.0
  0
VERTEX
  5
23A
330
238
100
AcDbEntity
  8
0
 62
     0
100
AcDbVertex
100
AcDb2dVertex
 10
-0.5
 20
-1.0
 30
0.0
  0
VERTEX
  5
23C
330
238
100
AcDbEntity
  8
0
 62
     0
100
AcDbVertex
100
AcDb2dVertex
 10
-0.5
 20
1.0
 30
0.0
  0
VERTEX
  5
23D
330
238
100
AcDbEntity
  8
0
 62
     0
100
AcDbVertex
100
AcDb2dVertex
 10
-0.25
 20
1.0
 30
0.0
  0
SEQEND
  5
23B
330
238
100
AcDbEntity
  8
0
 62
     0
  0
SOLID
  5
23E
330
227
100
AcDbEntity
  8
0
 62
     0
100
AcDbTrace
 10
-0.25
 20
1.0
 30
0.0
 11
-0.5
 21
-1.0
 31
0.0
 12
-0.5
 22
1.0
 32
0.0
 13
-0.25
 23
1.0
 33
0.0
  0
POLYLINE
  5
23F
330
227
100
AcDbEntity
  8
0
 62
     0
100
AcDb2dPolyline
 66
     1
 10
0.0
 20
0.0
 30
0.0
 70
   128
  0
VERTEX
  5
240
330
23F
100
AcDbEntity
  8
0
 62
     0
100
AcDbVertex
100
AcDb2dVertex
 10
-0.25
 20
1.0
 30
0.0
  0
VERTEX
  5
241
330
23F
100
AcDbEntity
  8
0
 62
     0
100
AcDbVertex
100
AcDb2dVertex
 10
-0.5
 20
1.0
 30
0.0
  0
VERTEX
  5
243
330
23F
100
AcDbEntity
  8
0
 62
     0
100
AcDbVertex
100
AcDb2dVertex
 10
-0.25
 20
1.0
 30
0.0
  0
VERTEX
  5
244
330
23F
100
AcDbEntity
  8
0
 62
     0
100
AcDbVertex
100
AcDb2dVertex
 10
-0.25
 20
1.0
 30
0.0
  0
SEQEND
  5
242
330
23F
100
AcDbEntity
  8
0
 62
     0
  0
SOLID
  5
245
330
227
100
AcDbEntity
  8
0
 62
     0
100
AcDbTrace
 10
-0.25
 20
1.0
 30
0.0
 11
-0.5
 21
1.0
 31
0.0
 12
-0.25
 22
1.0
 32
0.0
 13
-0.25
 23
1.0
 33
0.0
  0
LINE
  5
246
330
227
100
AcDbEntity
  8
0
 62
     0
100
AcDbLine
 10
-1.0
 20
0.0
 30
0.0
 11
-0.5
 21
0.0
 31
0.0
  0
LINE
  5
247
330
227
100
AcDbEntity
  8
0
 62
     0
100
AcDbLine
 10
-0.5
 20
0.0
 30
0.0
 11
-1.0
 21
0.0
 31
0.0
  0
ENDBLK
  5
229
330
227
100
AcDbEntity
  8
0
100
AcDbBlockEnd
  0
BLOCK
  5
26C
330
26B
100
AcDbEntity
  8
0
100
AcDbBlockBegin
  2
REVISIONE
 70
     2
 10
0.0
 20
0.0
 30
0.0
  3
REVISIONE
  1

  0
LINE
  5
26E
330
26B
100
AcDbEntity
  8
Geometria schizzo(ISO)
100
AcDbLine
 10
-95.0
 20
-6.499999999999994
 30
0.0
 11
-95.0
 21
6.49999999999995
 31
0.0
  0
LINE
  5
26F
330
26B
100
AcDbEntity
  8
Geometria schizzo(ISO)
100
AcDbLine
 10
-95.00000000000001
 20
6.49999999999995
 30
0.0
 11
94.99999999999998
 21
6.500000000000003
 31
0.0
  0
LINE
  5
270
330
26B
100
AcDbEntity
  8
Geometria schizzo(ISO)
100
AcDbLine
 10
95.0
 20
6.500000000000003
 30
0.0
 11
95.0
 21
-6.499999999999985
 31
0.0
  0
LINE
  5
271
330
26B
100
AcDbEntity
  8
Geometria schizzo(ISO)
100
AcDbLine
 10
95.0
 20
-6.499999999999985
 30
0.0
 11
-95.0
 21
-6.499999999999994
 31
0.0
  0
LINE
  5
272
330
26B
100
AcDbEntity
  8
Geometria schizzo(ISO)
100
AcDbLine
 10
14.28199999999996
 20
6.500000000000003
 30
0.0
 11
14.28199999999996
 21
-6.499999999999994
 31
0.0
  0
LINE
  5
273
330
26B
100
AcDbEntity
  8
Geometria schizzo(ISO)
100
AcDbLine
 10
20.14999999999997
 20
6.500000000000003
 30
0.0
 11
20.14999999999997
 21
-6.499999999999994
 31
0.0
  0
LINE
  5
274
330
26B
100
AcDbEntity
  8
Geometria schizzo(ISO)
100
AcDbLine
 10
45.09999999999998
 20
6.500000000000003
 30
0.0
 11
45.09999999999998
 21
-6.499999999999985
 31
0.0
  0
LINE
  5
275
330
26B
100
AcDbEntity
  8
Geometria schizzo(ISO)
100
AcDbLine
 10
70.04999999999999
 20
6.500000000000003
 30
0.0
 11
70.04999999999999
 21
-6.499999999999985
 31
0.0
  0
LINE
  5
276
330
26B
100
AcDbEntity
  8
Geometria schizzo(ISO)
100
AcDbLine
 10
-95.0
 20
-1.500000000000021
 30
0.0
 11
95.0
 21
-1.499999999999976
 31
0.0
  0
LINE
  5
277
330
26B
100
AcDbEntity
  8
Geometria schizzo(ISO)
100
AcDbLine
 10
20.14999999999997
 20
2.499999999999982
 30
0.0
 11
95.0
 21
2.500000000000017
 31
0.0
  0
MTEXT
  5
278
330
26B
100
AcDbEntity
  8
Simboli(ISO)
 62
    96
100
AcDbMText
 10
-40.24999999999997
 20
-4.249999999999989
 30
0.0
 40
2.489199936389923
 41
109.5
 71
     5
 72
     1
  1
\fArial|b0|i0;\H2.4892;Descrizione Revisione
  7
Corrente-ISO
 73
     1
 44
1.0
1001
ACAD
1000
MTEXTBEGIN
1070
    73
1070
     1
1070
    44
1040
1.0
1070
    74
1070
     0
1000
MTEXTEND
  0
MTEXT
  5
27A
330
26B
100
AcDbEntity
  8
Simboli(ISO)
 62
    96
100
AcDbMText
 10
17.20910565308934
 20
-4.010830382627901
 30
0.0
 40
2.489199936389923
 41
5.876843529209256
 71
     5
 72
     1
  1
\fArial|b0|i0;\W0.90;\H2.4892;Rev
  7
Corrente-ISO
 73
     1
 44
1.0
1001
ACAD
1000
MTEXTBEGIN
1070
    73
1070
     1
1070
    44
1040
1.0
1070
    74
1070
     0
1000
MTEXTEND
  0
MTEXT
  5
27B
330
26B
100
AcDbEntity
  8
Simboli(ISO)
 62
    96
100
AcDbMText
 10
32.68356521178614
 20
-4.036669839269944
 30
0.0
 40
2.489199936389923
 41
24.96635793550775
 71
     5
 72
     1
  1
\fArial|b0|i0;\H2.4892;Disegnato
  7
Corrente-ISO
 73
     1
 44
1.0
1001
ACAD
1000
MTEXTBEGIN
1070
    73
1070
     1
1070
    44
1040
1.0
1070
    74
1070
     0
1000
MTEXTEND
  0
MTEXT
  5
27C
330
26B
100
AcDbEntity
  8
Simboli(ISO)
 62
    96
100
AcDbMText
 10
57.57373402865312
 20
-4.00232928281115
 30
0.0
 40
2.489199936389923
 41
24.92816610583702
 71
     5
 72
     1
  1
\fArial|b0|i0;\H2.4892;Verificato
  7
Corrente-ISO
 73
     1
 44
1.0
1001
ACAD
1000
MTEXTBEGIN
1070
    73
1070
     1
1070
    44
1040
1.0
1070
    74
1070
     0
1000
MTEXTEND
  0
MTEXT
  5
27D
330
26B
100
AcDbEntity
  8
Simboli(ISO)
 62
    96
100
AcDbMText
 10
82.5334947683379
 20
-4.033923917081256
 30
0.0
 40
2.489199936389923
 41
24.9913553735324
 71
     5
 72
     1
  1
\fArial|b0|i0;\H2.4892;Approvato
  7
Corrente-ISO
 73
     1
 44
1.0
1001
ACAD
1000
MTEXTBEGIN
1070
    73
1070
     1
1070
    44
1040
1.0
1070
    74
1070
     0
1000
MTEXTEND
  0
ATTDEF
  5
27F
102
{ACAD_XDICTIONARY
360
1BA8
102
}
330
26B
100
AcDbEntity
  8
Simboli(ISO)
 62
     7
100
AcDbText
 10
-93.74928292882428
 20
2.972124334461173
 30
0.0
 40
2.489199936389923
  1
MODIFICA LUNGHEZZA DA 124 A 154
  7
Stile testo15
100
AcDbAttributeDefinition
  3
DESCRIZIONE 1
  2
DESCRIZIONE_1_001
 70
     0
  0
ATTDEF
  5
282
102
{ACAD_XDICTIONARY
360
1BAB
102
}
330
26B
100
AcDbEntity
  8
Simboli(ISO)
 62
     7
100
AcDbText
 10
-93.56890635983567
 20
-0.5518208838393335
 30
0.0
 40
2.489199936389923
  1

  7
Stile testo15
 11
-93.56890635983567
 21
1.937379052550589
 31
0.0
100
AcDbAttributeDefinition
  3
DESCRIZIONE 2
  2
DESCRIZIONE_2
 70
     0
 74
     3
  0
ATTDEF
  5
284
102
{ACAD_XDICTIONARY
360
1BAE
102
}
330
26B
100
AcDbEntity
  8
Simboli(ISO)
 62
     7
100
AcDbText
 10
14.79150347412997
 20
0.7317788596934767
 30
0.0
 40
3.499999940395355
  1
02
 41
0.9
  7
Stile testo116
100
AcDbAttributeDefinition
  3
NR.REV
  2
NR.REV_001
 70
     0
  0
ATTDEF
  5
286
102
{ACAD_XDICTIONARY
360
1BB1
102
}
330
26B
100
AcDbEntity
  8
Simboli(ISO)
 62
     7
100
AcDbText
 10
23.56259596210668
 20
3.22339526798552
 30
0.0
 40
2.489199936389923
  1
FRIGHETTO
 41
0.9
  7
Stile testo115
100
AcDbAttributeDefinition
  3
DISEGNATO
  2
DISEGNATO_001
 70
     0
  0
ATTDEF
  5
287
102
{ACAD_XDICTIONARY
360
1BB4
102
}
330
26B
100
AcDbEntity
  8
Simboli(ISO)
 62
     7
100
AcDbText
 10
25.87515680501189
 20
-0.7742316560178431
 30
0.0
 40
2.489199936389923
  1
25/07/02
  7
Stile testo15
100
AcDbAttributeDefinition
  3
DATA
  2
DATA_001
 70
     0
  0
ATTDEF
  5
288
102
{ACAD_XDICTIONARY
360
1BB7
102
}
330
26B
100
AcDbEntity
  8
Simboli(ISO)
 62
     7
100
AcDbText
 10
50.88033121203083
 20
-0.7595313769708057
 30
0.0
 40
2.489199936389923
  1
25/07/02
  7
Stile testo15
100
AcDbAttributeDefinition
  3
DATA
  2
DATA_001
 70
     0
  0
ATTDEF
  5
289
102
{ACAD_XDICTIONARY
360
1BBA
102
}
330
26B
100
AcDbEntity
  8
Simboli(ISO)
 62
     7
100
AcDbText
 10
75.82670450345434
 20
-0.7742316560178076
 30
0.0
 40
2.489199936389923
  1
25/07/02
  7
Stile testo15
100
AcDbAttributeDefinition
  3
DATA
  2
DATA_001
 70
     0
  0
ENDBLK
  5
26D
330
26B
100
AcDbEntity
  8
0
100
AcDbBlockEnd
  0
BLOCK
  5
28B
330
28A
100
AcDbEntity
  8
0
100
AcDbBlockBegin
  2
TIMBRO PER APPROVAZIONE
 70
     0
 10
0.0
 20
0.0
 30
0.0
  3
TIMBRO PER APPROVAZIONE
  1

  0
LINE
  5
28D
330
28A
100
AcDbEntity
  8
Geometria schizzo(ISO)
 62
     7
100
AcDbLine
 10
34.85000000000001
 20
-9.100000000000004
 30
0.0
 11
-34.84999999999999
 21
-9.099999999999997
 31
0.0
  0
LINE
  5
28E
330
28A
100
AcDbEntity
  8
Geometria schizzo(ISO)
 62
     7
100
AcDbLine
 10
35.25
 20
-16.5
 30
0.0
 11
-35.24999999999999
 21
-16.5
 31
0.0
  0
LINE
  5
28F
330
28A
100
AcDbEntity
  8
Geometria schizzo(ISO)
 62
     7
100
AcDbLine
 10
-35.24999999999999
 20
-16.5
 30
0.0
 11
-35.25
 21
16.5
 31
0.0
  0
LINE
  5
290
330
28A
100
AcDbEntity
  8
Geometria schizzo(ISO)
 62
     7
100
AcDbLine
 10
-35.25
 20
16.5
 30
0.0
 11
35.25000000000001
 21
16.5
 31
0.0
  0
LINE
  5
291
330
28A
100
AcDbEntity
  8
Geometria schizzo(ISO)
 62
     7
100
AcDbLine
 10
35.25
 20
16.5
 30
0.0
 11
35.25
 21
-16.5
 31
0.0
  0
MTEXT
  5
292
330
28A
100
AcDbEntity
  8
Simboli(ISO)
 62
     7
100
AcDbMText
 10
-33.7105069207141
 20
-14.19215346071146
 30
0.0
 40
2.5
 41
0.0
 71
     7
 72
     1
  1
\fSwis721 BT|b0|i0;\H2.5000;DATA.........................FIRMA..........................
  7
Corrente-ISO
 73
     1
 44
1.25
1001
ACAD
1000
MTEXTBEGIN
1070
    73
1070
     1
1070
    44
1040
1.25
1070
    74
1070
     0
1000
MTEXTEND
  0
MTEXT
  5
293
330
28A
100
AcDbEntity
  8
Simboli(ISO)
 62
     7
100
AcDbMText
 10
-25.72449588474212
 20
11.13847904581678
 30
0.0
 40
3.499999940395355
 41
0.0
 71
     7
 72
     1
  1
\fSwis721 BT|b0|i0;\H3.5000;RESTITUIRE FIRMATO
  7
Corrente-ISO
 73
     1
 44
1.25
1001
ACAD
1000
MTEXTBEGIN
1070
    73
1070
     1
1070
    44
1040
1.25
1070
    74
1070
     0
1000
MTEXTEND
  0
MTEXT
  5
294
330
28A
100
AcDbEntity
  8
Simboli(ISO)
 62
     7
100
AcDbMText
 10
-28.95171691808511
 20
7.316396977395109
 30
0.0
 40
2.000000029802322
 41
0.0
 71
     7
 72
     1
  1
\fSwis721 BT|b0|i0;\H2.0000;L'APPROVAZIONE DEL DISEGNO DEFINISCE
  7
Corrente-ISO
 73
     1
 44
1.25
1001
ACAD
1000
MTEXTBEGIN
1070
    73
1070
     1
1070
    44
1040
1.25
1070
    74
1070
     0
1000
MTEXTEND
  0
MTEXT
  5
295
330
28A
100
AcDbEntity
  8
Simboli(ISO)
 62
     7
100
AcDbMText
 10
-25.76940871751251
 20
4.544968949952115
 30
0.0
 40
2.000000029802322
 41
0.0
 71
     7
 72
     1
  1
\fSwis721 BT|b0|i0;\H2.0000;L'ORDINE ED IL SUO PROSEGUIMENTO
  7
Corrente-ISO
 73
     1
 44
1.25
1001
ACAD
1000
MTEXTBEGIN
1070
    73
1070
     1
1070
    44
1040
1.25
1070
    74
1070
     0
1000
MTEXTEND
  0
MTEXT
  5
296
330
28A
100
AcDbEntity
  8
Simboli(ISO)
 62
     7
100
AcDbMText
 10
-31.13563506443334
 20
-5.098775396401857
 30
0.0
 40
2.000000029802322
 41
0.0
 71
     7
 72
     1
  1
\fSwis721 BT|b0|i0;\H2.0000;THE APPROVAL OF THE DRAWING DETERMINES
  7
Corrente-ISO
 73
     1
 44
1.25
1001
ACAD
1000
MTEXTBEGIN
1070
    73
1070
     1
1070
    44
1040
1.25
1070
    74
1070
     0
1000
MTEXTEND
  0
MTEXT
  5
297
330
28A
100
AcDbEntity
  8
Simboli(ISO)
 62
     7
100
AcDbMText
 10
-24.30740641391715
 20
-7.870204115351859
 30
0.0
 40
2.000000029802322
 41
0.0
 71
     7
 72
     1
  1
\fSwis721 BT|b0|i0;\H2.0000;THE ORDER AND ITS PROSECUTION
  7
Corrente-ISO
 73
     1
 44
1.25
1001
ACAD
1000
MTEXTBEGIN
1070
    73
1070
     1
1070
    44
1040
1.25
1070
    74
1070
     0
1000
MTEXTEND
  0
MTEXT
  5
298
330
28A
100
AcDbEntity
  8
Simboli(ISO)
 62
     7
100
AcDbMText
 10
-19.82985272453558
 20
-2.084089723680357
 30
0.0
 40
3.499999940395355
 41
0.0
 71
     7
 72
     1
  1
\fSwis721 BT|b0|i0;\H3.5000;RETURN SIGNED
  7
Corrente-ISO
 73
     1
 44
1.25
1001
ACAD
1000
MTEXTBEGIN
1070
    73
1070
     1
1070
    44
1040
1.25
1070
    74
1070
     0
1000
MTEXTEND
  0
ENDBLK
  5
28C
330
28A
100
AcDbEntity
  8
0
100
AcDbBlockEnd
  0
BLOCK
  5
29A
330
299
100
AcDbEntity
  8
0
100
AcDbBlockBegin
  2
TIMBRO INVIO DISEGNI
 70
     0
 10
0.0
 20
0.0
 30
0.0
  3
TIMBRO INVIO DISEGNI
  1

  0
LINE
  5
29C
330
299
100
AcDbEntity
  8
Geometria schizzo(ISO)
  6
Continuous
370
   140
100
AcDbLine
 10
0.0
 20
22.49999999999998
 30
0.0
 11
0.0
 21
0.0
 31
0.0
  0
LINE
  5
29D
330
299
100
AcDbEntity
  8
Geometria schizzo(ISO)
  6
Continuous
370
   140
100
AcDbLine
 10
0.0
 20
0.0
 30
0.0
 11
70.50000000000008
 21
0.0
 31
0.0
  0
LINE
  5
29E
330
299
100
AcDbEntity
  8
Geometria schizzo(ISO)
  6
Continuous
370
   140
100
AcDbLine
 10
70.50000000000008
 20
0.0
 30
0.0
 11
70.50000000000003
 21
22.5
 31
0.0
  0
LINE
  5
29F
330
299
100
AcDbEntity
  8
Geometria schizzo(ISO)
  6
Continuous
370
   140
100
AcDbLine
 10
70.50000000000003
 20
22.5
 30
0.0
 11
0.0
 21
22.49999999999998
 31
0.0
  0
MTEXT
  5
2A0
330
299
100
AcDbEntity
  8
Simboli(ISO)
 62
     7
100
AcDbMText
 10
2.899336189043077
 20
19.99303336238528
 30
0.0
 40
2.489199936389923
 41
66.17203235626219
 71
     1
 72
     1
  1
\fArial|b1|i0;\H2.4892;INVIO DISEGNO TRAMITE COMPUTER
  7
Corrente-ISO
 73
     1
 44
1.0
1001
ACAD
1000
MTEXTBEGIN
1070
    73
1070
     1
1070
    44
1040
1.0
1070
    74
1070
     0
1000
MTEXTEND
  0
MTEXT
  5
2A1
330
299
100
AcDbEntity
  8
Simboli(ISO)
 62
     7
100
AcDbMText
 10
6.717374444392016
 20
13.05512495578345
 30
0.0
 40
2.209800034761428
 41
56.78950309753417
 71
     1
 72
     1
  1
\fArial|b0|i0;\H2.2098;FIRME DI VERIFICA E APPROVAZIONE
  7
Corrente-ISO
 73
     1
 44
1.0
1001
ACAD
1000
MTEXTBEGIN
1070
    73
1070
     1
1070
    44
1040
1.0
1070
    74
1070
     0
1000
MTEXTEND
  0
MTEXT
  5
2A2
330
299
100
AcDbEntity
  8
Simboli(ISO)
 62
     7
100
AcDbMText
 10
6.65344964311584
 20
9.044092769503713
 30
0.0
 40
2.209800034761428
 41
57.3048973083496
 71
     1
 72
     1
  1
\fArial|b0|i0;\H2.2098;RIPORTATE SUL DISEGNO ORIGINALE
  7
Corrente-ISO
 73
     1
 44
1.0
1001
ACAD
1000
MTEXTBEGIN
1070
    73
1070
     1
1070
    44
1040
1.0
1070
    74
1070
     0
1000
MTEXTEND
  0
MTEXT
  5
2A3
330
299
100
AcDbEntity
  8
Simboli(ISO)
 62
     7
100
AcDbMText
 10
4.053371845049107
 20
4.974204064852525
 30
0.0
 40
2.209800034761428
 41
62.52453804016113
 71
     1
 72
     1
  1
\fArial|b0|i0;\H2.2098;ARCHIVIATE PRESSO L'UFFICIO TECNICO
  7
Corrente-ISO
 73
     1
 44
1.0
1001
ACAD
1000
MTEXTBEGIN
1070
    73
1070
     1
1070
    44
1040
1.0
1070
    74
1070
     0
1000
MTEXTEND
  0
ENDBLK
  5
29B
330
299
100
AcDbEntity
  8
0
100
AcDbBlockEnd
  0
BLOCK
  5
2A5
330
2A4
100
AcDbEntity
  8
0
100
AcDbBlockBegin
  2
Bordi Default Border
 70
     0
 10
0.0
 20
0.0
 30
0.0
  3
Bordi Default Border
  1

  0
POLYLINE
  5
2A7
330
2A4
100
AcDbEntity
  8
Bordo_0
100
AcDb2dPolyline
 66
     1
 10
0.0
 20
0.0
 30
0.0
 70
   128
  0
VERTEX
  5
2A8
330
2A7
100
AcDbEntity
  8
Bordo_0
100
AcDbVertex
100
AcDb2dVertex
 10
10.0
 20
10.0
 30
0.0
  0
VERTEX
  5
2A9
330
2A7
100
AcDbEntity
  8
Bordo_0
100
AcDbVertex
100
AcDb2dVertex
 10
10.0
 20
410.0
 30
0.0
  0
VERTEX
  5
2AB
330
2A7
100
AcDbEntity
  8
Bordo_0
100
AcDbVertex
100
AcDb2dVertex
 10
584.000015258789
 20
410.0
 30
0.0
  0
VERTEX
  5
2AC
330
2A7
100
AcDbEntity
  8
Bordo_0
100
AcDbVertex
100
AcDb2dVertex
 10
584.000015258789
 20
10.0
 30
0.0
  0
VERTEX
  5
2AD
330
2A7
100
AcDbEntity
  8
Bordo_0
100
AcDbVertex
100
AcDb2dVertex
 10
10.0
 20
10.0
 30
0.0
  0
SEQEND
  5
2AA
330
2A7
100
AcDbEntity
  8
Bordo_0
  0
POLYLINE
  5
2AE
330
2A4
100
AcDbEntity
  8
Bordo_0
100
AcDb2dPolyline
 66
     1
 10
0.0
 20
0.0
 30
0.0
 70
   128
  0
VERTEX
  5
2AF
330
2AE
100
AcDbEntity
  8
Bordo_0
100
AcDbVertex
100
AcDb2dVertex
 10
297.0000076293946
 20
0.0
 30
0.0
  0
VERTEX
  5
2B0
330
2AE
100
AcDbEntity
  8
Bordo_0
100
AcDbVertex
100
AcDb2dVertex
 10
297.0000076293946
 20
10.0
 30
0.0
  0
VERTEX
  5
2B2
330
2AE
100
AcDbEntity
  8
Bordo_0
100
AcDbVertex
100
AcDb2dVertex
 10
294.1132545471191
 20
5.0
 30
0.0
  0
VERTEX
  5
2B3
330
2AE
100
AcDbEntity
  8
Bordo_0
100
AcDbVertex
100
AcDb2dVertex
 10
299.8867607116699
 20
5.0
 30
0.0
  0
VERTEX
  5
2B4
330
2AE
100
AcDbEntity
  8
Bordo_0
100
AcDbVertex
100
AcDb2dVertex
 10
297.0000076293946
 20
10.0
 30
0.0
  0
SEQEND
  5
2B1
330
2AE
100
AcDbEntity
  8
Bordo_0
  0
POLYLINE
  5
2B5
330
2A4
100
AcDbEntity
  8
Bordo_0
100
AcDb2dPolyline
 66
     1
 10
0.0
 20
0.0
 30
0.0
 70
   128
  0
VERTEX
  5
2B6
330
2B5
100
AcDbEntity
  8
Bordo_0
100
AcDbVertex
100
AcDb2dVertex
 10
297.0000076293946
 20
420.0
 30
0.0
  0
VERTEX
  5
2B7
330
2B5
100
AcDbEntity
  8
Bordo_0
100
AcDbVertex
100
AcDb2dVertex
 10
297.0000076293946
 20
410.0
 30
0.0
  0
VERTEX
  5
2B9
330
2B5
100
AcDbEntity
  8
Bordo_0
100
AcDbVertex
100
AcDb2dVertex
 10
294.1132545471191
 20
415.0
 30
0.0
  0
VERTEX
  5
2BA
330
2B5
100
AcDbEntity
  8
Bordo_0
100
AcDbVertex
100
AcDb2dVertex
 10
299.8867607116699
 20
415.0
 30
0.0
  0
VERTEX
  5
2BB
330
2B5
100
AcDbEntity
  8
Bordo_0
100
AcDbVertex
100
AcDb2dVertex
 10
297.0000076293946
 20
410.0
 30
0.0
  0
SEQEND
  5
2B8
330
2B5
100
AcDbEntity
  8
Bordo_0
  0
POLYLINE
  5
2BC
330
2A4
100
AcDbEntity
  8
Bordo_0
100
AcDb2dPolyline
 66
     1
 10
0.0
 20
0.0
 30
0.0
 70
   128
  0
VERTEX
  5
2BD
330
2BC
100
AcDbEntity
  8
Bordo_0
100
AcDbVertex
100
AcDb2dVertex
 10
0.0
 20
210.0
 30
0.0
  0
VERTEX
  5
2BE
330
2BC
100
AcDbEntity
  8
Bordo_0
100
AcDbVertex
100
AcDb2dVertex
 10
10.0
 20
210.0
 30
0.0
  0
VERTEX
  5
2C0
330
2BC
100
AcDbEntity
  8
Bordo_0
100
AcDbVertex
100
AcDb2dVertex
 10
5.0
 20
212.8867530822754
 30
0.0
  0
VERTEX
  5
2C1
330
2BC
100
AcDbEntity
  8
Bordo_0
100
AcDbVertex
100
AcDb2dVertex
 10
5.0
 20
207.1132469177246
 30
0.0
  0
VERTEX
  5
2C2
330
2BC
100
AcDbEntity
  8
Bordo_0
100
AcDbVertex
100
AcDb2dVertex
 10
10.0
 20
210.0
 30
0.0
  0
SEQEND
  5
2BF
330
2BC
100
AcDbEntity
  8
Bordo_0
  0
POLYLINE
  5
2C3
330
2A4
100
AcDbEntity
  8
Bordo_0
100
AcDb2dPolyline
 66
     1
 10
0.0
 20
0.0
 30
0.0
 70
   128
  0
VERTEX
  5
2C4
330
2C3
100
AcDbEntity
  8
Bordo_0
100
AcDbVertex
100
AcDb2dVertex
 10
594.0000152587891
 20
210.0
 30
0.0
  0
VERTEX
  5
2C5
330
2C3
100
AcDbEntity
  8
Bordo_0
100
AcDbVertex
100
AcDb2dVertex
 10
584.000015258789
 20
210.0
 30
0.0
  0
VERTEX
  5
2C7
330
2C3
100
AcDbEntity
  8
Bordo_0
100
AcDbVertex
100
AcDb2dVertex
 10
589.000015258789
 20
212.8867530822754
 30
0.0
  0
VERTEX
  5
2C8
330
2C3
100
AcDbEntity
  8
Bordo_0
100
AcDbVertex
100
AcDb2dVertex
 10
589.000015258789
 20
207.1132469177246
 30
0.0
  0
VERTEX
  5
2C9
330
2C3
100
AcDbEntity
  8
Bordo_0
100
AcDbVertex
100
AcDb2dVertex
 10
584.000015258789
 20
210.0
 30
0.0
  0
SEQEND
  5
2C6
330
2C3
100
AcDbEntity
  8
Bordo_0
  0
LINE
  5
2CA
330
2A4
100
AcDbEntity
  8
Bordo_0
100
AcDbLine
 10
74.25000190734863
 20
10.0
 30
0.0
 11
74.25000190734863
 21
6.100000143051147
 31
0.0
  0
LINE
  5
2CB
330
2A4
100
AcDbEntity
  8
Bordo_0
100
AcDbLine
 10
74.25000190734863
 20
410.0
 30
0.0
 11
74.25000190734863
 21
413.8999938964843
 31
0.0
  0
LINE
  5
2CC
330
2A4
100
AcDbEntity
  8
Bordo_0
100
AcDbLine
 10
148.5000038146973
 20
10.0
 30
0.0
 11
148.5000038146973
 21
6.100000143051147
 31
0.0
  0
LINE
  5
2CD
330
2A4
100
AcDbEntity
  8
Bordo_0
100
AcDbLine
 10
148.5000038146973
 20
410.0
 30
0.0
 11
148.5000038146973
 21
413.8999938964843
 31
0.0
  0
LINE
  5
2CE
330
2A4
100
AcDbEntity
  8
Bordo_0
100
AcDbLine
 10
222.7499961853027
 20
10.0
 30
0.0
 11
222.7499961853027
 21
6.100000143051147
 31
0.0
  0
LINE
  5
2CF
330
2A4
100
AcDbEntity
  8
Bordo_0
100
AcDbLine
 10
222.7499961853027
 20
410.0
 30
0.0
 11
222.7499961853027
 21
413.8999938964843
 31
0.0
  0
LINE
  5
2D0
330
2A4
100
AcDbEntity
  8
Bordo_0
100
AcDbLine
 10
371.25
 20
10.0
 30
0.0
 11
371.25
 21
6.100000143051147
 31
0.0
  0
LINE
  5
2D1
330
2A4
100
AcDbEntity
  8
Bordo_0
100
AcDbLine
 10
371.25
 20
410.0
 30
0.0
 11
371.25
 21
413.8999938964843
 31
0.0
  0
LINE
  5
2D2
330
2A4
100
AcDbEntity
  8
Bordo_0
100
AcDbLine
 10
445.4999923706054
 20
10.0
 30
0.0
 11
445.4999923706054
 21
6.100000143051147
 31
0.0
  0
LINE
  5
2D3
330
2A4
100
AcDbEntity
  8
Bordo_0
100
AcDbLine
 10
445.4999923706054
 20
410.0
 30
0.0
 11
445.4999923706054
 21
413.8999938964843
 31
0.0
  0
LINE
  5
2D4
330
2A4
100
AcDbEntity
  8
Bordo_0
100
AcDbLine
 10
519.7499847412109
 20
10.0
 30
0.0
 11
519.7499847412109
 21
6.100000143051147
 31
0.0
  0
LINE
  5
2D5
330
2A4
100
AcDbEntity
  8
Bordo_0
100
AcDbLine
 10
519.7499847412109
 20
410.0
 30
0.0
 11
519.7499847412109
 21
413.8999938964843
 31
0.0
  0
MTEXT
  5
2D6
330
2A4
100
AcDbEntity
  8
Bordo_2
100
AcDbMText
 10
556.073016883589
 20
410.4
 30
0.0
 40
3.499999940395355
 41
0.0
 71
     7
 72
     1
  1
1
  7
Bordo_1
 73
     1
 44
1.0
1001
ACAD
1000
MTEXTBEGIN
1070
    73
1070
     1
1070
    44
1040
1.0
1070
    74
1070
     0
1000
MTEXTEND
  0
MTEXT
  5
2D7
330
2A4
100
AcDbEntity
  8
Bordo_2
100
AcDbMText
 10
556.073016883589
 20
6.100000059604644
 30
0.0
 40
3.499999940395355
 41
0.0
 71
     7
 72
     1
  1
1
  7
Bordo_1
 73
     1
 44
1.0
1001
ACAD
1000
MTEXTBEGIN
1070
    73
1070
     1
1070
    44
1040
1.0
1070
    74
1070
     0
1000
MTEXTEND
  0
MTEXT
  5
2D8
330
2A4
100
AcDbEntity
  8
Bordo_2
100
AcDbMText
 10
481.41421584402
 20
410.4
 30
0.0
 40
3.499999940395355
 41
0.0
 71
     7
 72
     1
  1
2
  7
Bordo_1
 73
     1
 44
1.0
1001
ACAD
1000
MTEXTBEGIN
1070
    73
1070
     1
1070
    44
1040
1.0
1070
    74
1070
     0
1000
MTEXTEND
  0
MTEXT
  5
2D9
330
2A4
100
AcDbEntity
  8
Bordo_2
100
AcDbMText
 10
481.41421584402
 20
6.100000059604644
 30
0.0
 40
3.499999940395355
 41
0.0
 71
     7
 72
     1
  1
2
  7
Bordo_1
 73
     1
 44
1.0
1001
ACAD
1000
MTEXTBEGIN
1070
    73
1070
     1
1070
    44
1040
1.0
1070
    74
1070
     0
1000
MTEXTEND
  0
MTEXT
  5
2DA
330
2A4
100
AcDbEntity
  8
Bordo_2
100
AcDbMText
 10
407.2314160149081
 20
410.3413109757005
 30
0.0
 40
3.499999940395355
 41
0.0
 71
     7
 72
     1
  1
3
  7
Bordo_1
 73
     1
 44
1.0
1001
ACAD
1000
MTEXTBEGIN
1070
    73
1070
     1
1070
    44
1040
1.0
1070
    74
1070
     0
1000
MTEXTEND
  0
MTEXT
  5
2DB
330
2A4
100
AcDbEntity
  8
Bordo_2
100
AcDbMText
 10
407.2314160149081
 20
6.041311035305261
 30
0.0
 40
3.499999940395355
 41
0.0
 71
     7
 72
     1
  1
3
  7
Bordo_1
 73
     1
 44
1.0
1001
ACAD
1000
MTEXTBEGIN
1070
    73
1070
     1
1070
    44
1040
1.0
1070
    74
1070
     0
1000
MTEXTEND
  0
MTEXT
  5
2DC
330
2A4
100
AcDbEntity
  8
Bordo_2
100
AcDbMText
 10
332.8302156304102
 20
410.4
 30
0.0
 40
3.499999940395355
 41
0.0
 71
     7
 72
     1
  1
4
  7
Bordo_1
 73
     1
 44
1.0
1001
ACAD
1000
MTEXTBEGIN
1070
    73
1070
     1
1070
    44
1040
1.0
1070
    74
1070
     0
1000
MTEXTEND
  0
MTEXT
  5
2DD
330
2A4
100
AcDbEntity
  8
Bordo_2
100
AcDbMText
 10
332.8302156304102
 20
6.100000059604644
 30
0.0
 40
3.499999940395355
 41
0.0
 71
     7
 72
     1
  1
4
  7
Bordo_1
 73
     1
 44
1.0
1001
ACAD
1000
MTEXTBEGIN
1070
    73
1070
     1
1070
    44
1040
1.0
1070
    74
1070
     0
1000
MTEXTEND
  0
MTEXT
  5
2DE
330
2A4
100
AcDbEntity
  8
Bordo_2
100
AcDbMText
 10
258.7286160077879
 20
410.3413109757005
 30
0.0
 40
3.499999940395355
 41
0.0
 71
     7
 72
     1
  1
5
  7
Bordo_1
 73
     1
 44
1.0
1001
ACAD
1000
MTEXTBEGIN
1070
    73
1070
     1
1070
    44
1040
1.0
1070
    74
1070
     0
1000
MTEXTEND
  0
MTEXT
  5
2DF
330
2A4
100
AcDbEntity
  8
Bordo_2
100
AcDbMText
 10
258.7286160077879
 20
6.041311035305261
 30
0.0
 40
3.499999940395355
 41
0.0
 71
     7
 72
     1
  1
5
  7
Bordo_1
 73
     1
 44
1.0
1001
ACAD
1000
MTEXTBEGIN
1070
    73
1070
     1
1070
    44
1040
1.0
1070
    74
1070
     0
1000
MTEXTEND
  0
MTEXT
  5
2E0
330
2A4
100
AcDbEntity
  8
Bordo_2
100
AcDbMText
 10
184.4590159579455
 20
410.3413109757005
 30
0.0
 40
3.499999940395355
 41
0.0
 71
     7
 72
     1
  1
6
  7
Bordo_1
 73
     1
 44
1.0
1001
ACAD
1000
MTEXTBEGIN
1070
    73
1070
     1
1070
    44
1040
1.0
1070
    74
1070
     0
1000
MTEXTEND
  0
MTEXT
  5
2E1
330
2A4
100
AcDbEntity
  8
Bordo_2
100
AcDbMText
 10
184.4590159579455
 20
6.041311035305261
 30
0.0
 40
3.499999940395355
 41
0.0
 71
     7
 72
     1
  1
6
  7
Bordo_1
 73
     1
 44
1.0
1001
ACAD
1000
MTEXTBEGIN
1070
    73
1070
     1
1070
    44
1040
1.0
1070
    74
1070
     0
1000
MTEXTEND
  0
MTEXT
  5
2E2
330
2A4
100
AcDbEntity
  8
Bordo_2
100
AcDbMText
 10
110.2594160861115
 20
410.4
 30
0.0
 40
3.499999940395355
 41
0.0
 71
     7
 72
     1
  1
7
  7
Bordo_1
 73
     1
 44
1.0
1001
ACAD
1000
MTEXTBEGIN
1070
    73
1070
     1
1070
    44
1040
1.0
1070
    74
1070
     0
1000
MTEXTEND
  0
MTEXT
  5
2E3
330
2A4
100
AcDbEntity
  8
Bordo_2
100
AcDbMText
 10
110.2594160861115
 20
6.100000059604644
 30
0.0
 40
3.499999940395355
 41
0.0
 71
     7
 72
     1
  1
7
  7
Bordo_1
 73
     1
 44
1.0
1001
ACAD
1000
MTEXTBEGIN
1070
    73
1070
     1
1070
    44
1040
1.0
1070
    74
1070
     0
1000
MTEXTEND
  0
MTEXT
  5
2E4
330
2A4
100
AcDbEntity
  8
Bordo_2
100
AcDbMText
 10
35.97301599354719
 20
410.3413109757005
 30
0.0
 40
3.499999940395355
 41
0.0
 71
     7
 72
     1
  1
8
  7
Bordo_1
 73
     1
 44
1.0
1001
ACAD
1000
MTEXTBEGIN
1070
    73
1070
     1
1070
    44
1040
1.0
1070
    74
1070
     0
1000
MTEXTEND
  0
MTEXT
  5
2E5
330
2A4
100
AcDbEntity
  8
Bordo_2
100
AcDbMText
 10
35.97301599354719
 20
6.041311035305261
 30
0.0
 40
3.499999940395355
 41
0.0
 71
     7
 72
     1
  1
8
  7
Bordo_1
 73
     1
 44
1.0
1001
ACAD
1000
MTEXTBEGIN
1070
    73
1070
     1
1070
    44
1040
1.0
1070
    74
1070
     0
1000
MTEXTEND
  0
LINE
  5
2E6
330
2A4
100
AcDbEntity
  8
Bordo_0
100
AcDbLine
 10
10.0
 20
70.0
 30
0.0
 11
6.100000143051147
 21
70.0
 31
0.0
  0
LINE
  5
2E7
330
2A4
100
AcDbEntity
  8
Bordo_0
100
AcDbLine
 10
584.000015258789
 20
70.0
 30
0.0
 11
587.9000091552734
 21
70.0
 31
0.0
  0
LINE
  5
2E8
330
2A4
100
AcDbEntity
  8
Bordo_0
100
AcDbLine
 10
10.0
 20
140.0
 30
0.0
 11
6.100000143051147
 21
140.0
 31
0.0
  0
LINE
  5
2E9
330
2A4
100
AcDbEntity
  8
Bordo_0
100
AcDbLine
 10
584.000015258789
 20
140.0
 30
0.0
 11
587.9000091552734
 21
140.0
 31
0.0
  0
LINE
  5
2EA
330
2A4
100
AcDbEntity
  8
Bordo_0
100
AcDbLine
 10
10.0
 20
280.0
 30
0.0
 11
6.100000143051147
 21
280.0
 31
0.0
  0
LINE
  5
2EB
330
2A4
100
AcDbEntity
  8
Bordo_0
100
AcDbLine
 10
584.000015258789
 20
280.0
 30
0.0
 11
587.9000091552734
 21
280.0
 31
0.0
  0
LINE
  5
2EC
330
2A4
100
AcDbEntity
  8
Bordo_0
100
AcDbLine
 10
10.0
 20
350.0
 30
0.0
 11
6.100000143051147
 21
350.0
 31
0.0
  0
LINE
  5
2ED
330
2A4
100
AcDbEntity
  8
Bordo_0
100
AcDbLine
 10
584.000015258789
 20
350.0
 30
0.0
 11
587.9000091552734
 21
350.0
 31
0.0
  0
MTEXT
  5
2EE
330
2A4
100
AcDbEntity
  8
Bordo_2
100
AcDbMText
 10
6.206442621438576
 20
33.25000002980232
 30
0.0
 40
3.499999940395355
 41
0.0
 71
     7
 72
     1
  1
A
  7
Bordo_1
 73
     1
 44
1.0
1001
ACAD
1000
MTEXTBEGIN
1070
    73
1070
     1
1070
    44
1040
1.0
1070
    74
1070
     0
1000
MTEXTEND
  0
MTEXT
  5
2EF
330
2A4
100
AcDbEntity
  8
Bordo_2
100
AcDbMText
 10
584.5064425618339
 20
33.25000002980232
 30
0.0
 40
3.499999940395355
 41
0.0
 71
     7
 72
     1
  1
A
  7
Bordo_1
 73
     1
 44
1.0
1001
ACAD
1000
MTEXTBEGIN
1070
    73
1070
     1
1070
    44
1040
1.0
1070
    74
1070
     0
1000
MTEXTEND
  0
MTEXT
  5
2F0
330
2A4
100
AcDbEntity
  8
Bordo_2
100
AcDbMText
 10
6.593912902519599
 20
103.2500000298023
 30
0.0
 40
3.499999940395355
 41
0.0
 71
     7
 72
     1
  1
B
  7
Bordo_1
 73
     1
 44
1.0
1001
ACAD
1000
MTEXTBEGIN
1070
    73
1070
     1
1070
    44
1040
1.0
1070
    74
1070
     0
1000
MTEXTEND
  0
MTEXT
  5
2F1
330
2A4
100
AcDbEntity
  8
Bordo_2
100
AcDbMText
 10
584.893912842915
 20
103.2500000298023
 30
0.0
 40
3.499999940395355
 41
0.0
 71
     7
 72
     1
  1
B
  7
Bordo_1
 73
     1
 44
1.0
1001
ACAD
1000
MTEXTBEGIN
1070
    73
1070
     1
1070
    44
1040
1.0
1070
    74
1070
     0
1000
MTEXTEND
  0
MTEXT
  5
2F2
330
2A4
100
AcDbEntity
  8
Bordo_2
100
AcDbMText
 10
6.338794476247101
 20
173.1913110055029
 30
0.0
 40
3.499999940395355
 41
0.0
 71
     7
 72
     1
  1
C
  7
Bordo_1
 73
     1
 44
1.0
1001
ACAD
1000
MTEXTBEGIN
1070
    73
1070
     1
1070
    44
1040
1.0
1070
    74
1070
     0
1000
MTEXTEND
  0
MTEXT
  5
2F3
330
2A4
100
AcDbEntity
  8
Bordo_2
100
AcDbMText
 10
584.6387944166425
 20
173.1913110055029
 30
0.0
 40
3.499999940395355
 41
0.0
 71
     7
 72
     1
  1
C
  7
Bordo_1
 73
     1
 44
1.0
1001
ACAD
1000
MTEXTBEGIN
1070
    73
1070
     1
1070
    44
1040
1.0
1070
    74
1070
     0
1000
MTEXTEND
  0
MTEXT
  5
2F4
330
2A4
100
AcDbEntity
  8
Bordo_2
100
AcDbMText
 10
6.478794832263828
 20
243.2500000298023
 30
0.0
 40
3.499999940395355
 41
0.0
 71
     7
 72
     1
  1
D
  7
Bordo_1
 73
     1
 44
1.0
1001
ACAD
1000
MTEXTBEGIN
1070
    73
1070
     1
1070
    44
1040
1.0
1070
    74
1070
     0
1000
MTEXTEND
  0
MTEXT
  5
2F5
330
2A4
100
AcDbEntity
  8
Bordo_2
100
AcDbMText
 10
584.7787947726592
 20
243.2500000298023
 30
0.0
 40
3.499999940395355
 41
0.0
 71
     7
 72
     1
  1
D
  7
Bordo_1
 73
     1
 44
1.0
1001
ACAD
1000
MTEXTBEGIN
1070
    73
1070
     1
1070
    44
1040
1.0
1070
    74
1070
     0
1000
MTEXTEND
  0
MTEXT
  5
2F6
330
2A4
100
AcDbEntity
  8
Bordo_2
100
AcDbMText
 10
6.624712980843279
 20
313.2500000298023
 30
0.0
 40
3.499999940395355
 41
0.0
 71
     7
 72
     1
  1
E
  7
Bordo_1
 73
     1
 44
1.0
1001
ACAD
1000
MTEXTBEGIN
1070
    73
1070
     1
1070
    44
1040
1.0
1070
    74
1070
     0
1000
MTEXTEND
  0
MTEXT
  5
2F7
330
2A4
100
AcDbEntity
  8
Bordo_2
100
AcDbMText
 10
584.9247129212386
 20
313.2500000298023
 30
0.0
 40
3.499999940395355
 41
0.0
 71
     7
 72
     1
  1
E
  7
Bordo_1
 73
     1
 44
1.0
1001
ACAD
1000
MTEXTBEGIN
1070
    73
1070
     1
1070
    44
1040
1.0
1070
    74
1070
     0
1000
MTEXTEND
  0
MTEXT
  5
2F8
330
2A4
100
AcDbEntity
  8
Bordo_2
100
AcDbMText
 10
6.776098593408375
 20
383.2500000298023
 30
0.0
 40
3.499999940395355
 41
0.0
 71
     7
 72
     1
  1
F
  7
Bordo_1
 73
     1
 44
1.0
1001
ACAD
1000
MTEXTBEGIN
1070
    73
1070
     1
1070
    44
1040
1.0
1070
    74
1070
     0
1000
MTEXTEND
  0
MTEXT
  5
2F9
330
2A4
100
AcDbEntity
  8
Bordo_2
100
AcDbMText
 10
585.0760985338038
 20
383.2500000298023
 30
0.0
 40
3.499999940395355
 41
0.0
 71
     7
 72
     1
  1
F
  7
Bordo_1
 73
     1
 44
1.0
1001
ACAD
1000
MTEXTBEGIN
1070
    73
1070
     1
1070
    44
1040
1.0
1070
    74
1070
     0
1000
MTEXTEND
  0
ENDBLK
  5
2A6
330
2A4
100
AcDbEntity
  8
0
100
AcDbBlockEnd
  0
BLOCK
  5
2FC
330
2FB
100
AcDbEntity
  8
0
100
AcDbBlockBegin
  2
Cartigli COMUNELLO
 70
     2
 10
0.0
 20
0.0
 30
0.0
  3
Cartigli COMUNELLO
  1

  0
HATCH
  5
30A
330
2FB
100
AcDbEntity
  8
Tratteggio
 62
     7
100
AcDbHatch
 10
0.0
 20
0.0
 30
0.0
210
0.0
220
0.0
230
1.0
  2
SOLID
 70
     1
 71
     0
 91
        2
 92
        0
 93
        6
 72
     1
 10
13.50007588364672
 20
19.89302050081428
 11
30.89993084866332
 21
19.89302050081416
 72
     1
 10
30.89993084866332
 20
19.89302050081416
 11
30.89993084866332
 21
23.04299424448097
 72
     1
 10
30.89993084866332
 20
23.04299424448097
 11
27.77220960581477
 21
23.04299424448103
 72
     2
 10
22.20000336615506
 20
37.30358966223789
 40
15.31058666564578
 50
68.65735037136855
 51
111.3426496286315
 73
     0
 72
     1
 10
16.62779712649531
 20
23.04299424448104
 11
13.50007588364672
 21
23.04299424448097
 72
     1
 10
13.50007588364672
 20
23.04299424448097
 11
13.50007588364672
 21
19.89302050081428
 97
        0
 92
        1
 93
        6
 72
     1
 10
32.69991584504435
 20
18.09303550443317
 11
32.69991584504435
 21
24.84297924086209
 72
     1
 10
32.69991584504435
 20
24.84297924086208
 11
27.42202839407664
 21
24.84297924086206
 72
     2
 10
22.20000336615506
 20
37.30358966223789
 40
13.51060166926475
 50
67.26229019813374
 51
112.7377098018664
 73
     0
 72
     1
 10
16.97797833823344
 20
24.84297924086206
 11
11.70009088726569
 21
24.84297924086208
 72
     1
 10
11.70009088726569
 20
24.84297924086208
 11
11.70009088726569
 21
18.09303550443317
 72
     1
 10
11.70009088726569
 20
18.09303550443317
 11
32.69991584504435
 21
18.09303550443317
 97
        0
 75
     0
 76
     1
 98
        1
 10
0.0
 20
0.0
  0
HATCH
  5
313
330
2FB
100
AcDbEntity
  8
Tratteggio
 62
     7
100
AcDbHatch
 10
0.0
 20
0.0
 30
0.0
210
0.0
220
0.0
230
1.0
  2
SOLID
 70
     1
 71
     0
 91
        1
 92
        1
 93
        8
 72
     1
 10
95.05771295395282
 20
26.74999998775002
 11
27.77386600155343
 21
26.74999998775007
 72
     2
 10
22.20000336615506
 20
39.84359466344421
 40
14.23060667047108
 50
66.94084417726135
 51
113.0591558227387
 73
     0
 72
     1
 10
16.62614073075666
 20
26.74999998775004
 11
10.0
 21
26.74999998775003
 72
     1
 10
10.0
 20
26.74999998775003
 11
10.00000000000025
 21
26.24999998775003
 72
     1
 10
10.00000000000025
 20
26.24999998775003
 11
16.52506224989093
 21
26.24999998775001
 72
     2
 10
22.20000336615506
 20
39.84359466344421
 40
14.73060667047108
 50
247.3408443660875
 51
292.6591556339125
 73
     1
 72
     1
 10
27.87494448241919
 20
26.24999998775003
 11
95.05771295395282
 21
26.24999998775003
 72
     1
 10
95.05771295395282
 20
26.24999998775003
 11
95.05771295395282
 21
26.74999998775002
 97
        0
 75
     0
 76
     1
 98
        1
 10
0.0
 20
0.0
  0
HATCH
  5
320
330
2FB
100
AcDbEntity
  8
Tratteggio
 62
     7
100
AcDbHatch
 10
0.0
 20
0.0
 30
0.0
210
0.0
220
0.0
230
1.0
  2
SOLID
 70
     1
 71
     0
 91
        2
 92
        0
 93
        6
 72
     1
 10
30.90009088726564
 20
32.93297924086207
 11
30.90009088726564
 21
29.78297924086208
 72
     1
 10
30.90009088726564
 20
29.78297924086208
 11
26.91257430898715
 21
29.78297924086208
 72
     2
 10
22.20009088726563
 20
39.83297924086207
 40
11.1
 50
64.87793981336809
 51
115.1220601866318
 73
     0
 72
     1
 10
17.48760746554413
 20
29.78297924086206
 11
13.50009088726564
 21
29.78297924086206
 72
     1
 10
13.50009088726564
 20
29.78297924086206
 11
13.50009088726564
 21
32.93297924086207
 72
     1
 10
13.50009088726564
 20
32.93297924086207
 11
30.90009088726564
 21
32.93297924086207
 97
        0
 92
        1
 93
        6
 72
     1
 10
11.70009088726567
 20
34.7329792408621
 11
32.70009088726567
 21
34.73297924086214
 72
     1
 10
32.70009088726567
 20
34.73297924086214
 11
32.70009088726565
 21
27.98297924086213
 72
     1
 10
32.70009088726565
 20
27.98297924086213
 11
27.30247474189664
 21
27.98297924086202
 72
     2
 10
22.20009088726567
 20
39.84297924086207
 40
12.911
 50
66.72176127080208
 51
113.2782387291978
 73
     0
 72
     1
 10
17.09770703263471
 20
27.98297924086201
 11
11.70009088726569
 21
27.98297924086199
 72
     1
 10
11.70009088726569
 20
27.98297924086199
 11
11.70009088726567
 21
34.7329792408621
 97
        0
 75
     0
 76
     1
 98
        1
 10
0.0
 20
0.0
  0
LINE
  5
321
330
2FB
100
AcDbEntity
  8
Geometria schizzo(ISO)
  6
Continuous
 62
     7
370
    50
100
AcDbLine
 10
200.0
 20
67.5
 30
0.0
 11
10.0
 21
67.5
 31
0.0
  0
LINE
  5
322
330
2FB
100
AcDbEntity
  8
Geometria schizzo(ISO)
  6
Continuous
 62
     7
370
    50
100
AcDbLine
 10
10.0
 20
59.5
 30
0.0
 11
200.0
 21
59.5
 31
0.0
  0
LINE
  5
323
330
2FB
100
AcDbEntity
  8
Geometria schizzo(ISO)
  6
Continuous
 62
     7
370
    50
100
AcDbLine
 10
10.0
 20
54.5
 30
0.0
 11
200.0000000000002
 21
54.5
 31
0.0
  0
LINE
  5
324
330
2FB
100
AcDbEntity
  8
Geometria schizzo(ISO)
  6
Continuous
 62
     7
370
    50
100
AcDbLine
 10
9.999999999999998
 20
46.49999997550015
 30
0.0
 11
200.0000000000002
 21
46.49999997550015
 31
0.0
  0
LINE
  5
325
330
2FB
100
AcDbEntity
  8
Geometria schizzo(ISO)
  6
Continuous
 62
     7
370
    50
100
AcDbLine
 10
10.0
 20
38.49999997550006
 30
0.0
 11
200.0000000000002
 21
38.49999997550006
 31
0.0
  0
LINE
  5
326
330
2FB
100
AcDbEntity
  8
Geometria schizzo(ISO)
  6
Continuous
 62
     7
370
    50
100
AcDbLine
 10
10.0
 20
14.5
 30
0.0
 11
200.0
 21
14.5
 31
0.0
  0
LINE
  5
327
330
2FB
100
AcDbEntity
  8
Geometria schizzo(ISO)
  6
Continuous
 62
     7
370
    50
100
AcDbLine
 10
10.0
 20
10.0
 30
0.0
 11
200.0
 21
10.0
 31
0.0
  0
LINE
  5
328
330
2FB
100
AcDbEntity
  8
Geometria schizzo(ISO)
  6
Continuous
 62
     7
370
    50
100
AcDbLine
 10
126.5003211145929
 20
30.50000000000001
 30
0.0
 11
200.0
 21
30.50000000000001
 31
0.0
  0
LINE
  5
329
330
2FB
100
AcDbEntity
  8
Geometria schizzo(ISO)
  6
Continuous
 62
     7
370
    50
100
AcDbLine
 10
126.5003211145929
 20
22.5
 30
0.0
 11
200.0
 21
22.5
 31
0.0
  0
LINE
  5
32A
330
2FB
100
AcDbEntity
  8
Geometria schizzo(ISO)
  6
Continuous
 62
     7
370
    50
100
AcDbLine
 10
10.0
 20
10.0
 30
0.0
 11
9.999999999999998
 21
67.5
 31
0.0
  0
LINE
  5
32B
330
2FB
100
AcDbEntity
  8
Geometria schizzo(ISO)
  6
Continuous
 62
     7
370
    50
100
AcDbLine
 10
82.71476190476196
 20
67.5
 30
0.0
 11
82.71476190476199
 21
38.49999997550006
 31
0.0
  0
LINE
  5
32C
330
2FB
100
AcDbEntity
  8
Geometria schizzo(ISO)
  6
Continuous
 62
     7
370
    50
100
AcDbLine
 10
34.23825396825403
 20
46.49999997550015
 30
0.0
 11
34.23825396825403
 21
38.49999997550006
 31
0.0
  0
LINE
  5
32D
330
2FB
100
AcDbEntity
  8
Geometria schizzo(ISO)
  6
Continuous
 62
     7
370
    50
100
AcDbLine
 10
58.47650793650799
 20
46.49999997550015
 30
0.0
 11
58.47650793650799
 21
38.49999997550003
 31
0.0
  0
LINE
  5
32E
330
2FB
100
AcDbEntity
  8
Geometria schizzo(ISO)
  6
Continuous
 62
     7
370
    50
100
AcDbLine
 10
111.6495238095238
 20
67.5
 30
0.0
 11
111.6495238095238
 21
38.4999999755002
 31
0.0
  0
LINE
  5
32F
330
2FB
100
AcDbEntity
  8
Geometria schizzo(ISO)
  6
Continuous
 62
     7
370
    50
100
AcDbLine
 10
126.5003211145929
 20
46.49999997550015
 30
0.0
 11
126.5003211145929
 21
14.5
 31
0.0
  0
LINE
  5
330
330
2FB
100
AcDbEntity
  8
Geometria schizzo(ISO)
  6
Continuous
 62
     7
370
    50
100
AcDbLine
 10
159.8068536898258
 20
46.49999997550015
 30
0.0
 11
159.8068536898258
 21
22.5
 31
0.0
  0
LINE
  5
331
330
2FB
100
AcDbEntity
  8
Geometria schizzo(ISO)
  6
Continuous
 62
     7
370
    50
100
AcDbLine
 10
176.9329761904763
 20
67.5
 30
0.0
 11
176.9329761904763
 21
22.5
 31
0.0
  0
LINE
  5
332
330
2FB
100
AcDbEntity
  8
Geometria schizzo(ISO)
  6
Continuous
 62
     7
370
    50
100
AcDbLine
 10
200.0
 20
67.5
 30
0.0
 11
200.0
 21
10.0
 31
0.0
  0
LINE
  5
333
330
2FB
100
AcDbEntity
  8
Geometria schizzo(ISO)
  6
Continuous
 62
     7
370
    50
100
AcDbLine
 10
32.69991584504435
 20
18.09303550443317
 30
0.0
 11
32.69991584504435
 21
24.84297924086208
 31
0.0
  0
LINE
  5
334
330
2FB
100
AcDbEntity
  8
Geometria schizzo(ISO)
  6
Continuous
 62
     7
370
    50
100
AcDbLine
 10
30.89993084866332
 20
19.89302050081416
 30
0.0
 11
30.89993084866332
 21
23.04299424448097
 31
0.0
  0
LINE
  5
335
330
2FB
100
AcDbEntity
  8
Geometria schizzo(ISO)
  6
Continuous
 62
     7
370
    50
100
AcDbLine
 10
11.70009088726569
 20
18.09303550443317
 30
0.0
 11
11.70009088726569
 21
24.84297924086208
 31
0.0
  0
LINE
  5
336
330
2FB
100
AcDbEntity
  8
Geometria schizzo(ISO)
  6
Continuous
 62
     7
370
    50
100
AcDbLine
 10
13.50007588364672
 20
19.89302050081428
 30
0.0
 11
13.50007588364672
 21
23.04299424448097
 31
0.0
  0
LINE
  5
337
330
2FB
100
AcDbEntity
  8
Geometria schizzo(ISO)
  6
Continuous
 62
     7
370
    50
100
AcDbLine
 10
32.69991584504435
 20
18.09303550443317
 30
0.0
 11
11.70009088726569
 21
18.09303550443317
 31
0.0
  0
LINE
  5
338
330
2FB
100
AcDbEntity
  8
Geometria schizzo(ISO)
  6
Continuous
 62
     7
370
    50
100
AcDbLine
 10
30.89993084866332
 20
19.89302050081416
 30
0.0
 11
13.50007588364672
 21
19.89302050081428
 31
0.0
  0
ARC
  5
339
330
2FB
100
AcDbEntity
  8
Geometria schizzo(ISO)
  6
Continuous
 62
     7
370
    50
100
AcDbCircle
 10
22.20000336615506
 20
37.30358966223789
 30
0.0
 40
15.31058666564578
100
AcDbArc
 50
248.6573503713684
 51
291.3426496286315
  0
ARC
  5
33A
330
2FB
100
AcDbEntity
  8
Geometria schizzo(ISO)
  6
Continuous
 62
     7
370
    50
100
AcDbCircle
 10
22.20000336615506
 20
37.30358966223789
 30
0.0
 40
13.51060166926475
100
AcDbArc
 50
247.2622901981336
 51
292.7377098018663
  0
LINE
  5
33B
330
2FB
100
AcDbEntity
  8
Geometria schizzo(ISO)
  6
Continuous
 62
     7
370
    50
100
AcDbLine
 10
11.70009088726569
 20
24.84297924086208
 30
0.0
 11
16.97797833823344
 21
24.84297924086206
 31
0.0
  0
LINE
  5
33C
330
2FB
100
AcDbEntity
  8
Geometria schizzo(ISO)
  6
Continuous
 62
     7
370
    50
100
AcDbLine
 10
13.50007588364672
 20
23.04299424448097
 30
0.0
 11
16.62779712649531
 21
23.04299424448104
 31
0.0
  0
LINE
  5
33D
330
2FB
100
AcDbEntity
  8
Geometria schizzo(ISO)
  6
Continuous
 62
     7
370
    50
100
AcDbLine
 10
27.42202839407664
 20
24.84297924086206
 30
0.0
 11
32.69991584504435
 21
24.84297924086208
 31
0.0
  0
LINE
  5
33E
330
2FB
100
AcDbEntity
  8
Geometria schizzo(ISO)
  6
Continuous
 62
     7
370
    50
100
AcDbLine
 10
27.77220960581477
 20
23.04299424448103
 30
0.0
 11
30.89993084866332
 21
23.04299424448097
 31
0.0
  0
LINE
  5
33F
330
2FB
100
AcDbEntity
  8
Geometria schizzo(ISO)
  6
Continuous
 62
     7
370
    50
100
AcDbLine
 10
95.05771295395282
 20
26.74999998775002
 30
0.0
 11
95.05771295395282
 21
26.24999998775003
 31
0.0
  0
LINE
  5
340
330
2FB
100
AcDbEntity
  8
Geometria schizzo(ISO)
  6
Continuous
 62
     7
370
    50
100
AcDbLine
 10
16.62614073075666
 20
26.74999998775004
 30
0.0
 11
10.0
 21
26.74999998775003
 31
0.0
  0
ARC
  5
341
330
2FB
100
AcDbEntity
  8
Geometria schizzo(ISO)
  6
Continuous
 62
     7
370
    50
100
AcDbCircle
 10
22.20000336615506
 20
39.84359466344421
 30
0.0
 40
14.23060667047107
100
AcDbArc
 50
246.9408441772613
 51
293.0591558227387
  0
LINE
  5
342
330
2FB
100
AcDbEntity
  8
Geometria schizzo(ISO)
  6
Continuous
 62
     7
370
    50
100
AcDbLine
 10
27.77386600155342
 20
26.74999998775007
 30
0.0
 11
95.05771295395282
 21
26.74999998775002
 31
0.0
  0
LINE
  5
343
330
2FB
100
AcDbEntity
  8
Geometria schizzo(ISO)
  6
Continuous
 62
     7
370
    50
100
AcDbLine
 10
27.87494448241919
 20
26.24999998775003
 30
0.0
 11
95.05771295395282
 21
26.24999998775003
 31
0.0
  0
ARC
  5
344
330
2FB
100
AcDbEntity
  8
Geometria schizzo(ISO)
  6
Continuous
 62
     7
370
    50
100
AcDbCircle
 10
22.20000336615506
 20
39.84359466344421
 30
0.0
 40
14.73060667047108
100
AcDbArc
 50
247.3408443660875
 51
292.6591556339125
  0
LINE
  5
345
330
2FB
100
AcDbEntity
  8
Geometria schizzo(ISO)
  6
Continuous
 62
     7
370
    50
100
AcDbLine
 10
16.52506224989093
 20
26.24999998775001
 30
0.0
 11
10.00000000000025
 21
26.24999998775003
 31
0.0
  0
LINE
  5
346
330
2FB
100
AcDbEntity
  8
Geometria schizzo(ISO)
  6
Continuous
 62
     7
370
    50
100
AcDbLine
 10
10.0
 20
26.74999998775003
 30
0.0
 11
10.00000000000025
 21
26.24999998775003
 31
0.0
  0
LINE
  5
347
330
2FB
100
AcDbEntity
  8
Geometria schizzo(ISO)
  6
Continuous
 62
     7
370
    50
100
AcDbLine
 10
70.09301344488737
 20
40.10977632401654
 30
0.0
 11
70.06166132979082
 21
45.19999997550015
 31
0.0
  0
LINE
  5
348
330
2FB
100
AcDbEntity
  8
Geometria schizzo(ISO)
  6
Continuous
 62
     7
370
    50
100
AcDbLine
 10
62.715217801343
 20
44.2999999755001
 30
0.0
 11
70.06166132979082
 21
45.19999997550015
 31
0.0
  0
LINE
  5
349
330
2FB
100
AcDbEntity
  8
Geometria schizzo(ISO)
  6
Continuous
 62
     7
370
    50
100
AcDbLine
 10
62.715217801343
 20
40.69999997550009
 30
0.0
 11
70.09301344488737
 21
40.10977632401654
 31
0.0
  0
LINE
  5
34A
330
2FB
100
AcDbEntity
  8
Geometria schizzo(ISO)
  6
Continuous
 62
     7
370
    50
100
AcDbLine
 10
62.715217801343
 20
40.69999997550009
 30
0.0
 11
62.715217801343
 21
44.2999999755001
 31
0.0
  0
LINE
  5
34B
330
2FB
100
AcDbEntity
  8
Geometria schizzo(ISO)
  6
LONG_DASH_DOTTED
 62
     7
 48
25.40819931030274
370
    25
100
AcDbLine
 10
61.89509347490513
 20
42.4999999755001
 30
0.0
 11
79.03957443821731
 21
42.4999999755001
 31
0.0
  0
CIRCLE
  5
34C
330
2FB
100
AcDbEntity
  8
Geometria schizzo(ISO)
  6
Continuous
 62
     7
370
    50
100
AcDbCircle
 10
75.61970665301604
 20
42.4999999755001
 30
0.0
 40
2.835161292266829
  0
CIRCLE
  5
34D
330
2FB
100
AcDbEntity
  8
Geometria schizzo(ISO)
  6
Continuous
 62
     7
370
    50
100
AcDbCircle
 10
75.61970665301604
 20
42.4999999755001
 30
0.0
 40
1.8
  0
LINE
  5
34E
330
2FB
100
AcDbEntity
  8
Geometria schizzo(ISO)
  6
DASH_DOT
 62
     7
 48
25.41209030151367
370
    25
100
AcDbLine
 10
75.61970665301604
 20
45.98912961192912
 30
0.0
 11
75.61970665301604
 21
39.01126421122319
 31
0.0
  0
LINE
  5
34F
330
2FB
100
AcDbEntity
  8
Geometria schizzo(ISO)
100
AcDbLine
 10
13.50009088726564
 20
32.93297924086207
 30
0.0
 11
30.90009088726564
 21
32.93297924086207
 31
0.0
  0
LINE
  5
350
330
2FB
100
AcDbEntity
  8
Geometria schizzo(ISO)
100
AcDbLine
 10
30.90009088726564
 20
32.93297924086207
 30
0.0
 11
30.90009088726564
 21
29.78297924086208
 31
0.0
  0
LINE
  5
351
330
2FB
100
AcDbEntity
  8
Geometria schizzo(ISO)
100
AcDbLine
 10
30.90009088726564
 20
29.78297924086208
 30
0.0
 11
26.91257430898715
 21
29.78297924086208
 31
0.0
  0
LINE
  5
352
330
2FB
100
AcDbEntity
  8
Geometria schizzo(ISO)
100
AcDbLine
 10
13.50009088726564
 20
32.93297924086207
 30
0.0
 11
13.50009088726564
 21
29.78297924086206
 31
0.0
  0
LINE
  5
353
330
2FB
100
AcDbEntity
  8
Geometria schizzo(ISO)
100
AcDbLine
 10
13.50009088726564
 20
29.78297924086206
 30
0.0
 11
17.48760746554413
 21
29.78297924086206
 31
0.0
  0
ARC
  5
354
330
2FB
100
AcDbEntity
  8
Geometria schizzo(ISO)
100
AcDbCircle
 10
22.20009088726563
 20
39.83297924086207
 30
0.0
 40
11.1
100
AcDbArc
 50
244.8779398133681
 51
295.122060186632
  0
LINE
  5
355
330
2FB
100
AcDbEntity
  8
Geometria schizzo(ISO)
100
AcDbLine
 10
11.70009088726567
 20
34.7329792408621
 30
0.0
 11
32.70009088726567
 21
34.73297924086214
 31
0.0
  0
LINE
  5
356
330
2FB
100
AcDbEntity
  8
Geometria schizzo(ISO)
100
AcDbLine
 10
32.70009088726567
 20
34.73297924086214
 30
0.0
 11
32.70009088726565
 21
27.98297924086213
 31
0.0
  0
LINE
  5
357
330
2FB
100
AcDbEntity
  8
Geometria schizzo(ISO)
100
AcDbLine
 10
32.70009088726565
 20
27.98297924086213
 30
0.0
 11
27.30247474189664
 21
27.98297924086202
 31
0.0
  0
LINE
  5
358
330
2FB
100
AcDbEntity
  8
Geometria schizzo(ISO)
100
AcDbLine
 10
11.70009088726567
 20
34.7329792408621
 30
0.0
 11
11.70009088726569
 21
27.98297924086199
 31
0.0
  0
LINE
  5
359
330
2FB
100
AcDbEntity
  8
Geometria schizzo(ISO)
100
AcDbLine
 10
11.70009088726569
 20
27.98297924086199
 30
0.0
 11
17.09770703263471
 21
27.98297924086201
 31
0.0
  0
ARC
  5
35A
330
2FB
100
AcDbEntity
  8
Geometria schizzo(ISO)
100
AcDbCircle
 10
22.20009088726567
 20
39.84297924086207
 30
0.0
 40
12.911
100
AcDbArc
 50
246.7217612708022
 51
293.2782387291979
  0
CIRCLE
  5
35B
330
2FB
100
AcDbEntity
  8
Geometria schizzo(ISO)
  6
Continuous
370
    25
100
AcDbCircle
 10
94.17107124803315
 20
30.38071944555288
 30
0.0
 40
1.196319387325194
  0
LINE
  5
35C
330
2FB
100
AcDbEntity
  8
Geometria schizzo(ISO)
100
AcDbLine
 10
0.0
 20
10.0
 30
0.0
 11
0.0
 21
12.0
 31
0.0
  0
LINE
  5
35D
330
2FB
100
AcDbEntity
  8
Geometria schizzo(ISO)
100
AcDbLine
 10
200.0
 20
297.0
 30
0.0
 11
198.0000000000001
 21
297.0
 31
0.0
  0
MTEXT
  5
35E
330
2FB
100
AcDbEntity
  8
Simboli(ISO)
 62
    96
100
AcDbMText
 10
46.375
 20
57.00000000000001
 30
0.0
 40
2.489199936389923
 41
72.75
 71
     5
 72
     1
  1
\fArial|b0|i0;\H2.4892;Denominazione
  7
Corrente-ISO
 73
     1
 44
1.0
1001
ACAD
1000
MTEXTBEGIN
1070
    73
1070
     1
1070
    44
1040
1.0
1070
    74
1070
     0
1000
MTEXTEND
  0
MTEXT
  5
35F
330
2FB
100
AcDbEntity
  8
Simboli(ISO)
 62
    96
100
AcDbMText
 10
97.25000000000001
 20
57.00000000000001
 30
0.0
 40
2.489199936389923
 41
29.0
 71
     5
 72
     1
  1
\fArial|b0|i0;\H2.4892;Codice Disegno
  7
Corrente-ISO
 73
     1
 44
1.0
1001
ACAD
1000
MTEXTBEGIN
1070
    73
1070
     1
1070
    44
1040
1.0
1070
    74
1070
     0
1000
MTEXTEND
  0
MTEXT
  5
360
330
2FB
100
AcDbEntity
  8
Simboli(ISO)
 62
    96
100
AcDbMText
 10
144.375
 20
57.00000000000001
 30
0.0
 40
2.489199936389923
 41
65.24999999999998
 71
     5
 72
     1
  1
\fArial|b0|i0;\H2.4892;Materiale-UNI
  7
Corrente-ISO
 73
     1
 44
1.0
1001
ACAD
1000
MTEXTBEGIN
1070
    73
1070
     1
1070
    44
1040
1.0
1070
    74
1070
     0
1000
MTEXTEND
  0
MTEXT
  5
361
330
2FB
100
AcDbEntity
  8
Simboli(ISO)
 62
    96
100
AcDbMText
 10
188.5
 20
57.00000000000001
 30
0.0
 40
2.489199936389923
 41
23.00000000000001
 71
     5
 72
     1
  1
\fArial|b0|i0;\H2.4892;Codice Mater.
  7
Corrente-ISO
 73
     1
 44
1.0
1001
ACAD
1000
MTEXTBEGIN
1070
    73
1070
     1
1070
    44
1040
1.0
1070
    74
1070
     0
1000
MTEXTEND
  0
MTEXT
  5
362
330
2FB
100
AcDbEntity
  8
Simboli(ISO)
 62
    96
100
AcDbMText
 10
11.03637498653142
 20
53.62542943640336
 30
0.0
 40
2.489199936389923
 41
0.0
 71
     1
 72
     1
  1
\fArial|b0|i0;\H2.4892;Tolleranze Generali
  7
Corrente-ISO
 73
     1
 44
1.0
1001
ACAD
1000
MTEXTBEGIN
1070
    73
1070
     1
1070
    44
1040
1.0
1070
    74
1070
     0
1000
MTEXTEND
  0
MTEXT
  5
363
330
2FB
100
AcDbEntity
  8
Simboli(ISO)
 62
    96
100
AcDbMText
 10
22.0
 20
45.62331331753725
 30
0.0
 40
2.489199936389923
 41
22.0
 71
     2
 72
     1
  1
\fArial|b0|i0;\H2.4892;Sostituisce il
  7
Corrente-ISO
 73
     1
 44
1.0
1001
ACAD
1000
MTEXTBEGIN
1070
    73
1070
     1
1070
    44
1040
1.0
1070
    74
1070
     0
1000
MTEXTEND
  0
MTEXT
  5
364
330
2FB
100
AcDbEntity
  8
Simboli(ISO)
 62
    96
100
AcDbMText
 10
46.5
 20
45.57392268569088
 30
0.0
 40
2.489199936389923
 41
23.0
 71
     2
 72
     1
  1
\fArial|b0|i0;\H2.4892;Sostituito dal
  7
Corrente-ISO
 73
     1
 44
1.0
1001
ACAD
1000
MTEXTBEGIN
1070
    73
1070
     1
1070
    44
1040
1.0
1070
    74
1070
     0
1000
MTEXTEND
  0
MTEXT
  5
365
330
2FB
100
AcDbEntity
  8
Simboli(ISO)
 62
    96
100
AcDbMText
 10
84.0
 20
45.52415962817554
 30
0.0
 40
2.489199936389923
 41
20.0
 71
     1
 72
     1
  1
\fArial|b0|i0;\H2.4892;Scala
  7
Corrente-ISO
 73
     1
 44
1.0
1001
ACAD
1000
MTEXTBEGIN
1070
    73
1070
     1
1070
    44
1040
1.0
1070
    74
1070
     0
1000
MTEXTEND
  0
MTEXT
  5
366
330
2FB
100
AcDbEntity
  8
Simboli(ISO)
 62
    96
100
AcDbMText
 10
119.2198163354513
 20
45.48687767908593
 30
0.0
 40
2.489199936389923
 41
12.5
 71
     2
 72
     1
  1
\fArial|b0|i0;\H2.4892;Foglio\P 
  7
Corrente-ISO
 73
     2
 44
0.9442214369773864
1001
ACAD
1000
MTEXTBEGIN
1070
    73
1070
     2
1070
    44
1040
0.9442214369773864
1070
    74
1070
     0
1000
MTEXTEND
  0
MTEXT
  5
367
330
2FB
100
AcDbEntity
  8
Simboli(ISO)
 62
    96
100
AcDbMText
 10
97.44767410410688
 20
52.26743745909543
 30
0.0
 40
2.489199936389923
 41
27.00000000000001
 71
     5
 72
     1
  1
\fArial|b0|i0;\H2.4892;Peso Unit.(Kg)
  7
Corrente-ISO
 73
     1
 44
1.0
1001
ACAD
1000
MTEXTBEGIN
1070
    73
1070
     1
1070
    44
1040
1.0
1070
    74
1070
     0
1000
MTEXTEND
  0
MTEXT
  5
368
330
2FB
100
AcDbEntity
  8
Simboli(ISO)
 62
    96
100
AcDbMText
 10
113.0
 20
53.52906693798992
 30
0.0
 40
2.489199936389923
 41
41.5
 71
     1
 72
     1
  1
\fArial|b0|i0;\H2.4892;Trattamento
  7
Corrente-ISO
 73
     1
 44
1.0
1001
ACAD
1000
MTEXTBEGIN
1070
    73
1070
     1
1070
    44
1040
1.0
1070
    74
1070
     0
1000
MTEXTEND
  0
MTEXT
  5
369
330
2FB
100
AcDbEntity
  8
Simboli(ISO)
 62
    96
100
AcDbMText
 10
188.6268379764541
 20
52.23897215805649
 30
0.0
 40
2.489199936389923
 41
21.64389610290527
 71
     5
 72
     1
  1
\fArial|b0|i0;\H2.4892;Coeff.Impiego
  7
Corrente-ISO
 73
     1
 44
1.0
1001
ACAD
1000
MTEXTBEGIN
1070
    73
1070
     1
1070
    44
1040
1.0
1070
    74
1070
     0
1000
MTEXTEND
  0
MTEXT
  5
36A
330
2FB
100
AcDbEntity
  8
Simboli(ISO)
 62
    96
100
AcDbMText
 10
127.0
 20
45.54724501095818
 30
0.0
 40
2.489199936389923
 41
32.5
 71
     1
 72
     1
  1
\fArial|b0|i0;\H2.4892;Disegnato
  7
Corrente-ISO
 73
     1
 44
1.0
1001
ACAD
1000
MTEXTBEGIN
1070
    73
1070
     1
1070
    44
1040
1.0
1070
    74
1070
     0
1000
MTEXTEND
  0
MTEXT
  5
36B
330
2FB
100
AcDbEntity
  8
Simboli(ISO)
 62
    96
100
AcDbMText
 10
127.1130530408996
 20
37.43473480983361
 30
0.0
 40
2.489199936389923
 41
31.99999999999999
 71
     1
 72
     1
  1
\fArial|b0|i0;\H2.4892;Verificato
  7
Corrente-ISO
 73
     1
 44
1.0
1001
ACAD
1000
MTEXTBEGIN
1070
    73
1070
     1
1070
    44
1040
1.0
1070
    74
1070
     0
1000
MTEXTEND
  0
MTEXT
  5
36C
330
2FB
100
AcDbEntity
  8
Simboli(ISO)
 62
    96
100
AcDbMText
 10
127.0565265204498
 20
29.43473480983361
 30
0.0
 40
2.489199936389923
 41
31.99999999999999
 71
     1
 72
     1
  1
\fArial|b0|i0;\H2.4892;Approvato
  7
Corrente-ISO
 73
     1
 44
1.0
1001
ACAD
1000
MTEXTBEGIN
1070
    73
1070
     1
1070
    44
1040
1.0
1070
    74
1070
     0
1000
MTEXTEND
  0
MTEXT
  5
36D
330
2FB
100
AcDbEntity
  8
Simboli(ISO)
 62
     7
100
AcDbMText
 10
33.90115953460973
 20
31.79652138804769
 30
0.0
 40
3.50519984960556
 41
58.00000000000001
 71
     1
 72
     1
  1
\fArial Black|b1|i0;\H3.5052;Fratelli Comunello 
  7
Corrente-ISO
 73
     1
 44
1.0
1001
ACAD
1000
MTEXTBEGIN
1070
    73
1070
     1
1070
    44
1040
1.0
1070
    74
1070
     0
1000
MTEXTEND
  0
MTEXT
  5
36E
330
2FB
100
AcDbEntity
  8
Simboli(ISO)
 62
     7
100
AcDbMText
 10
83.87549784754645
 20
30.17629441918698
 30
0.0
 40
2.006599903106689
 41
8.000000000000007
 71
     1
 72
     1
  1
\fArial Black|b1|i0;\H2.0066;S.p.A
  7
Corrente-ISO
 73
     1
 44
1.0
1001
ACAD
1000
MTEXTBEGIN
1070
    73
1070
     1
1070
    44
1040
1.0
1070
    74
1070
     0
1000
MTEXTEND
  0
MTEXT
  5
36F
330
2FB
100
AcDbEntity
  8
Simboli(ISO)
 62
     7
100
AcDbMText
 10
34.0
 20
24.5
 30
0.0
 40
2.489199936389923
 41
61.00000000000001
 71
     1
 72
     1
  1
\fEuroRoman|b0|i0;\W1.75;\H2.4892;Accessories for fittings
  7
Corrente-ISO
 73
     1
 44
1.0
1001
ACAD
1000
MTEXTBEGIN
1070
    73
1070
     1
1070
    44
1040
1.0
1070
    74
1070
     0
1000
MTEXTEND
  0
MTEXT
  5
370
102
{ACAD_XDICTIONARY
360
1DCB
102
}
330
2FB
100
AcDbEntity
  8
Simboli(ISO)
 62
     7
100
AcDbMText
 10
99.38145982981417
 20
35.34883259221208
 30
0.0
 40
2.006599903106689
 41
27.99999999999999
 71
     1
 72
     1
  1
\fArial|b0|i0;\H2.0066;Via Cassola , 64\P36027 Ros\U+00E0 (VI)\PITALY\PTel.0424/585111\PFax.0424/533417\Pwww.comunello.com
  7
Corrente-ISO
 73
     2
 44
0.9442214965820312
1001
ACAD
1000
MTEXTBEGIN
1070
    73
1070
     2
1070
    44
1040
0.9442214965820312
1070
    74
1070
     0
1000
MTEXTEND
  0
MTEXT
  5
371
330
2FB
100
AcDbEntity
  8
Simboli(ISO)
 62
     7
100
AcDbMText
 10
105.0
 20
12.1031239376365
 30
0.0
 40
2.006599903106689
 41
190.0
 71
     5
 72
     1
  1
\fArial Black|b1|i0;\W0.75;\H2.0066;La Fratelli Comunello S.p.A. si riserva a termini di legge la proprieta' del presente disegno con divieto di riprodurlo o comunicarlo a terzi senza sua autorizzazione
  7
Corrente-ISO
 73
     1
 44
1.0
1001
ACAD
1000
MTEXTBEGIN
1070
    73
1070
     1
1070
    44
1040
1.0
1070
    74
1070
     0
1000
MTEXTEND
  0
MTEXT
  5
372
330
2FB
100
AcDbEntity
  8
Simboli(ISO)
 62
    96
100
AcDbMText
 10
127.0
 20
21.49126132885024
 30
0.0
 40
2.489199936389923
 41
14.0
 71
     1
 72
     1
  1
\fArial|b0|i0;\H2.4892;Nr.Art.
  7
Corrente-ISO
 73
     1
 44
1.0
1001
ACAD
1000
MTEXTBEGIN
1070
    73
1070
     1
1070
    44
1040
1.0
1070
    74
1070
     0
1000
MTEXTEND
  0
MTEXT
  5
373
330
2FB
100
AcDbEntity
  8
Simboli(ISO)
 62
    96
100
AcDbMText
 10
160.1920425734282
 20
45.54306374702739
 30
0.0
 40
2.489199936389923
 41
13.99999999999998
 71
     1
 72
     1
  1
\fArial|b0|i0;\H2.4892;Data
  7
Corrente-ISO
 73
     1
 44
1.0
1001
ACAD
1000
MTEXTBEGIN
1070
    73
1070
     1
1070
    44
1040
1.0
1070
    74
1070
     0
1000
MTEXTEND
  0
MTEXT
  5
374
330
2FB
100
AcDbEntity
  8
Simboli(ISO)
 62
    96
100
AcDbMText
 10
160.145574392169
 20
37.49970139293061
 30
0.0
 40
2.489199936389923
 41
13.50000000000001
 71
     1
 72
     1
  1
\fArial|b0|i0;\H2.4892;Data
  7
Corrente-ISO
 73
     1
 44
1.0
1001
ACAD
1000
MTEXTBEGIN
1070
    73
1070
     1
1070
    44
1040
1.0
1070
    74
1070
     0
1000
MTEXTEND
  0
MTEXT
  5
375
330
2FB
100
AcDbEntity
  8
Simboli(ISO)
 62
    96
100
AcDbMText
 10
160.1269413643238
 20
29.66759768010355
 30
0.0
 40
2.489199936389923
 41
11.99999999999999
 71
     1
 72
     1
  1
\fArial|b0|i0;\H2.4892;Data
  7
Corrente-ISO
 73
     1
 44
1.0
1001
ACAD
1000
MTEXTBEGIN
1070
    73
1070
     1
1070
    44
1040
1.0
1070
    74
1070
     0
1000
MTEXTEND
  0
MTEXT
  5
376
330
2FB
100
AcDbEntity
  8
Simboli(ISO)
 62
    96
100
AcDbMText
 10
188.433042920287
 20
44.22190362458245
 30
0.0
 40
2.489199936389923
 41
21.64389610290527
 71
     5
 72
     1
  1
\fArial|b0|i0;\H2.4892;Attrezzatura 1
  7
Corrente-ISO
 73
     1
 44
1.0
1001
ACAD
1000
MTEXTBEGIN
1070
    73
1070
     1
1070
    44
1040
1.0
1070
    74
1070
     0
1000
MTEXTEND
  0
MTEXT
  5
377
330
2FB
100
AcDbEntity
  8
Simboli(ISO)
 62
    96
100
AcDbMText
 10
188.0837249836041
 20
36.34533462143185
 30
0.0
 40
2.489199936389923
 41
20.54728269577026
 71
     5
 72
     1
  1
\fArial|b0|i0;\W0.95;\H2.4892;Attrezzatura 2
  7
Corrente-ISO
 73
     1
 44
1.0
1001
ACAD
1000
MTEXTBEGIN
1070
    73
1070
     1
1070
    44
1040
1.0
1070
    74
1070
     0
1000
MTEXTEND
  0
MTEXT
  5
378
330
2FB
100
AcDbEntity
  8
Simboli(ISO)
 62
    96
100
AcDbMText
 10
188.3141272195963
 20
28.3675383381331
 30
0.0
 40
2.489199936389923
 41
21.64389610290527
 71
     5
 72
     1
  1
\fArial|b0|i0;\H2.4892;Attrezzatura 3
  7
Corrente-ISO
 73
     1
 44
1.0
1001
ACAD
1000
MTEXTBEGIN
1070
    73
1070
     1
1070
    44
1040
1.0
1070
    74
1070
     0
1000
MTEXTEND
  0
MTEXT
  5
379
330
2FB
100
AcDbEntity
  8
Simboli(ISO)
 62
     7
100
AcDbMText
 10
11.5
 20
50.09709167610179
 30
0.0
 40
2.489199936389923
 41
43.0
 71
     1
 72
     1
  1
\fArial|b0|i0;\H2.4892;UNI EN 22768-m
  7
Corrente-ISO
 73
     1
 44
1.0
1001
ACAD
1000
MTEXTBEGIN
1070
    73
1070
     1
1070
    44
1040
1.0
1070
    74
1070
     0
1000
MTEXTEND
  0
MTEXT
  5
37A
330
2FB
100
AcDbEntity
  8
Simboli(ISO)
 62
     7
100
AcDbMText
 10
93.43312134410579
 20
31.15001179156206
 30
0.0
 40
1.49859994649887
 41
0.0
 71
     1
 72
     1
  1
\fArial|b0|i0;\H1.4986;R
  7
Corrente-ISO
 73
     1
 44
1.0
1001
ACAD
1000
MTEXTBEGIN
1070
    73
1070
     1
1070
    44
1040
1.0
1070
    74
1070
     0
1000
MTEXTEND
  0
ATTDEF
  5
37C
102
{ACAD_XDICTIONARY
360
1BC1
102
}
330
2FB
100
AcDbEntity
  8
Simboli(ISO)
 62
     7
100
AcDbText
 10
10.73856713404271
 20
64.45781237692007
 30
0.0
 40
2.006599903106689
  1
INCONTRO
  7
Stile testo6
100
AcDbAttributeDefinition
  3
Denominazione  1
  2
Denominazione__1_001
 70
     0
  0
ATTDEF
  5
37D
102
{ACAD_XDICTIONARY
360
1BC4
102
}
330
2FB
100
AcDbEntity
  8
Simboli(ISO)
 62
     7
100
AcDbText
 10
11.0
 20
60.99340009689331
 30
0.0
 40
2.006599903106689
  1

  7
Stile testo6
 11
11.0
 21
63.0
 31
0.0
100
AcDbAttributeDefinition
  3
Denominazione 2
  2
Denominazione_2
 70
     0
 74
     3
  0
ATTDEF
  5
37F
102
{ACAD_XDICTIONARY
360
1BC7
102
}
330
2FB
100
AcDbEntity
  8
Simboli(ISO)
 62
     7
100
AcDbText
 10
86.55866225954213
 20
61.74740007519723
 30
0.0
 40
3.50519984960556
  1
CGS-346-G
 41
0.75
  7
Stile testo135
100
AcDbAttributeDefinition
  3
CODICE DISEGNO
  2
CODICE_DISEGNO_001
 70
     0
  0
ATTDEF
  5
381
102
{ACAD_XDICTIONARY
360
1BCA
102
}
330
2FB
100
AcDbEntity
  8
Simboli(ISO)
 62
     7
100
AcDbText
 10
144.75
 20
64.24302410113217
 30
0.0
 40
2.006599903106689
  1

  7
Stile testo6
 72
     1
 11
144.75
 21
65.24632405268551
 31
0.0
100
AcDbAttributeDefinition
  3
Materiale 1
  2
Materiale_1
 70
     0
 74
     2
  0
ATTDEF
  5
382
102
{ACAD_XDICTIONARY
360
1BCD
102
}
330
2FB
100
AcDbEntity
  8
Simboli(ISO)
 62
     7
100
AcDbText
 10
144.809961390817
 20
60.49670004844665
 30
0.0
 40
2.006599903106689
  1

  7
Stile testo6
 72
     1
 11
144.809961390817
 21
61.5
 31
0.0
100
AcDbAttributeDefinition
  3
Materiale 2
  2
Materiale_2
 70
     0
 74
     2
  0
ATTDEF
  5
383
102
{ACAD_XDICTIONARY
360
1BD0
102
}
330
2FB
100
AcDbEntity
  8
Simboli(ISO)
 62
     7
100
AcDbText
 10
188.5
 20
62.49670004844666
 30
0.0
 40
2.006599903106689
  1

  7
Stile testo6
 72
     1
 11
188.5
 21
63.5
 31
0.0
100
AcDbAttributeDefinition
  3
CODICE MATERIALE
  2
CODICE_MATERIALE
 70
     0
 74
     2
  0
ATTDEF
  5
384
102
{ACAD_XDICTIONARY
360
1BD3
102
}
330
2FB
100
AcDbEntity
  8
Simboli(ISO)
 62
     7
100
AcDbText
 10
94.62996414081992
 20
47.26444043215042
 30
0.0
 40
2.489199936389923
  1
3.5
  7
Stile testo15
100
AcDbAttributeDefinition
  3
PESO UNITARIO KG
  2
PESO_UNITARIO_KG_001
 70
     0
  0
ATTDEF
  5
385
102
{ACAD_XDICTIONARY
360
1BD6
102
}
330
2FB
100
AcDbEntity
  8
Simboli(ISO)
 62
     7
100
AcDbText
 10
132.5077790073107
 20
50.94924388835789
 30
0.0
 40
2.489199936389923
  1
001 ZINCATURA
  7
Stile testo15
100
AcDbAttributeDefinition
  3
TRATTAMENTO 1
  2
TRATTAMENTO_1_001
 70
     0
  0
ATTDEF
  5
386
102
{ACAD_XDICTIONARY
360
1BD9
102
}
330
2FB
100
AcDbEntity
  8
Simboli(ISO)
 62
     7
100
AcDbText
 10
113.0632687693352
 20
47.49849971798101
 30
0.0
 40
2.489199936389923
  1

  7
Stile testo15
 11
113.0632687693352
 21
49.98769965437094
 31
0.0
100
AcDbAttributeDefinition
  3
TRATTAMENTO 2
  2
TRATTAMENTO_2
 70
     0
 74
     3
  0
ATTDEF
  5
387
102
{ACAD_XDICTIONARY
360
1BDC
102
}
330
2FB
100
AcDbEntity
  8
Simboli(ISO)
 62
     7
100
AcDbText
 10
188.5523258958931
 20
47.38184462506182
 30
0.0
 40
2.489199936389923
  1

  7
Stile testo15
 72
     1
 11
188.5523258958931
 21
48.62644459325678
 31
0.0
100
AcDbAttributeDefinition
  3
COEFFICIENTE D'IMPEGO
  2
COEFFICIENTE_D'IMPEGO
 70
     0
 74
     2
  0
ATTDEF
  5
388
102
{ACAD_XDICTIONARY
360
1BDF
102
}
330
2FB
100
AcDbEntity
  8
Simboli(ISO)
 62
     7
100
AcDbText
 10
93.99672095625986
 20
39.75115514787532
 30
0.0
 40
2.489199936389923
  1
1 : 1
  7
Stile testo15
100
AcDbAttributeDefinition
  3
SCALA
  2
SCALA_001
 70
     0
  0
ATTDEF
  5
389
102
{ACAD_XDICTIONARY
360
1BE2
102
}
330
2FB
100
AcDbEntity
  8
Simboli(ISO)
 62
     7
100
AcDbText
 10
116.6796089569948
 20
39.15409732836659
 30
0.0
 40
2.489199936389923
  1
A 2
  7
Stile testo15
100
AcDbAttributeDefinition
  3
FOGLIO
  2
FOGLIO_001
 70
     0
  0
ATTDEF
  5
38A
102
{ACAD_XDICTIONARY
360
1BE5
102
}
330
2FB
100
AcDbEntity
  8
Simboli(ISO)
 62
     7
100
AcDbText
 10
127.2147437999226
 20
38.96665327074095
 30
0.0
 40
2.489199936389923
  1
FRIGHETTO M.
  7
Stile testo15
100
AcDbAttributeDefinition
  3
DISEGNATO
  2
DISEGNATO_001
 70
     0
  0
ATTDEF
  5
38B
102
{ACAD_XDICTIONARY
360
1BE8
102
}
330
2FB
100
AcDbEntity
  8
Simboli(ISO)
 62
     7
100
AcDbText
 10
161.369043149918
 20
39.25540003180504
 30
0.0
 40
2.489199936389923
  1
17/09/99
  7
Stile testo15
100
AcDbAttributeDefinition
  3
DATA
  2
DATA_001
 70
     0
  0
ATTDEF
  5
38C
102
{ACAD_XDICTIONARY
360
1BEB
102
}
330
2FB
100
AcDbEntity
  8
Simboli(ISO)
 62
     7
100
AcDbText
 10
168.25
 20
31.50540003180504
 30
0.0
 40
2.489199936389923
  1

  7
Stile testo15
 72
     1
 11
168.25
 21
32.75
 31
0.0
100
AcDbAttributeDefinition
  3
DATA
  2
DATA
 70
     0
 74
     2
  0
ATTDEF
  5
38D
102
{ACAD_XDICTIONARY
360
1BEE
102
}
330
2FB
100
AcDbEntity
  8
Simboli(ISO)
 62
     7
100
AcDbText
 10
168.25
 20
23.50540003180504
 30
0.0
 40
2.489199936389923
  1

  7
Stile testo15
 72
     1
 11
168.25
 21
24.75
 31
0.0
100
AcDbAttributeDefinition
  3
DATA
  2
DATA
 70
     0
 74
     2
  0
ATTDEF
  5
38E
102
{ACAD_XDICTIONARY
360
1BF1
102
}
330
2FB
100
AcDbEntity
  8
Simboli(ISO)
 62
     7
100
AcDbText
 10
137.6426382218469
 20
19.00740100265562
 30
0.0
 40
2.489199936389923
  1
CGS-346-G
  7
Stile testo15
100
AcDbAttributeDefinition
  3
NUMERO ARTICOLO
  2
NUMERO_ARTICOLO_001
 70
     0
  0
ATTDEF
  5
38F
102
{ACAD_XDICTIONARY
360
1BF4
102
}
330
2FB
100
AcDbEntity
  8
Simboli(ISO)
 62
     7
100
AcDbText
 10
127.1848152468796
 20
15.15058891438324
 30
0.0
 40
2.489199936389923
  1

  7
Stile testo15
 11
127.1848152468796
 21
17.63978885077316
 31
0.0
100
AcDbAttributeDefinition
  3
NUMERO ARTICOLO
  2
NUMERO_ARTICOLO
 70
     0
 74
     3
  0
ATTDEF
  5
390
102
{ACAD_XDICTIONARY
360
1BF7
102
}
330
2FB
100
AcDbEntity
  8
Simboli(ISO)
 62
     7
100
AcDbText
 10
188.5
 20
39.25540003180504
 30
0.0
 40
2.489199936389923
  1

  7
Stile testo15
 72
     1
 11
188.5
 21
40.5
 31
0.0
100
AcDbAttributeDefinition
  3
ATTREZZAT. 1
  2
ATTREZZAT._1
 70
     0
 74
     2
  0
ATTDEF
  5
391
102
{ACAD_XDICTIONARY
360
1BFA
102
}
330
2FB
100
AcDbEntity
  8
Simboli(ISO)
 62
     7
100
AcDbText
 10
188.5
 20
31.25540003180504
 30
0.0
 40
2.489199936389923
  1

  7
Stile testo15
 72
     1
 11
188.5
 21
32.5
 31
0.0
100
AcDbAttributeDefinition
  3
ATTREZZAT.2
  2
ATTREZZAT.2
 70
     0
 74
     2
  0
ATTDEF
  5
392
102
{ACAD_XDICTIONARY
360
1BFD
102
}
330
2FB
100
AcDbEntity
  8
Simboli(ISO)
 62
     7
100
AcDbText
 10
188.5
 20
23.25540003180504
 30
0.0
 40
2.489199936389923
  1

  7
Stile testo15
 72
     1
 11
188.5
 21
24.5
 31
0.0
100
AcDbAttributeDefinition
  3
ATTREZZAT.3
  2
ATTREZZAT.3
 70
     0
 74
     2
  0
ATTDEF
  5
393
102
{ACAD_XDICTIONARY
360
1C00
102
}
330
2FB
100
AcDbEntity
  8
Simboli(ISO)
 62
     7
100
AcDbText
 10
22.0
 20
39.75540003180504
 30
0.0
 40
2.489199936389923
  1

  7
Stile testo15
 72
     1
 11
22.0
 21
41.0
 31
0.0
100
AcDbAttributeDefinition
  3
SOSTITUISCE IL
  2
SOSTITUISCE_IL
 70
     0
 74
     2
  0
ATTDEF
  5
394
102
{ACAD_XDICTIONARY
360
1C03
102
}
330
2FB
100
AcDbEntity
  8
Simboli(ISO)
 62
     7
100
AcDbText
 10
46.5
 20
39.75540003180504
 30
0.0
 40
2.489199936389923
  1

  7
Stile testo15
 72
     1
 11
46.5
 21
41.0
 31
0.0
100
AcDbAttributeDefinition
  3
SOSTITUITO DAL
  2
SOSTITUITO_DAL
 70
     0
 74
     2
  0
ENDBLK
  5
2FD
330
2FB
100
AcDbEntity
  8
0
100
AcDbBlockEnd
  0
BLOCK
  5
453
330
452
100
AcDbEntity
  8
0
100
AcDbBlockBegin
  2
*D11
 70
     1
 10
0.0
 20
0.0
 30
0.0
  3
*D11
  1

  0
LINE
  5
52A
330
452
100
AcDbEntity
  8
Quote(ISO)
  6
Continuous
 62
    96
370
    25
100
AcDbLine
 10
225.7003819497663
 20
393.9663286751433
 30
0.0
 11
225.7003819497663
 21
399.4718698288776
 31
0.0
  0
LINE
  5
52B
330
452
100
AcDbEntity
  8
Quote(ISO)
  6
Continuous
 62
    96
370
    25
100
AcDbLine
 10
187.2003819497405
 20
331.4663286751433
 30
0.0
 11
187.2003819497405
 21
399.4718698288776
 31
0.0
  0
LINE
  5
52C
330
452
100
AcDbEntity
  8
Quote(ISO)
  6
Continuous
 62
    96
370
    25
100
AcDbLine
 10
223.2003819497663
 20
398.4718698288777
 30
0.0
 11
189.7003819497405
 21
398.4718698288777
 31
0.0
  0
SOLID
  5
52D
330
452
100
AcDbEntity
  8
Quote(ISO)
  6
Continuous
 62
    96
100
AcDbTrace
 10
223.2003819497663
 20
398.8885364955443
 30
0.0
 11
223.2003819497663
 21
398.055203162211
 31
0.0
 12
225.7003819497663
 22
398.4718698288777
 32
0.0
 13
225.7003819497663
 23
398.4718698288777
 33
0.0
  0
SOLID
  5
52E
330
452
100
AcDbEntity
  8
Quote(ISO)
  6
Continuous
 62
    96
100
AcDbTrace
 10
189.7003819497405
 20
398.8885364955443
 30
0.0
 11
189.7003819497405
 21
398.055203162211
 31
0.0
 12
187.2003819497405
 22
398.4718698288777
 32
0.0
 13
187.2003819497405
 23
398.4718698288777
 33
0.0
  0
MTEXT
  5
52F
330
452
100
AcDbEntity
  8
Quote(ISO)
  6
Continuous
 62
     7
370
    25
100
AcDbMText
 10
201.8927421134642
 20
402.8102681917697
 30
0.0
 40
3.5
 41
0.0
 71
     1
 72
     1
  1
\A1;38.5
  7
Corrente-ISO
 73
     1
 44
1.0
1001
ACAD
1000
MTEXTBEGIN
1070
    73
1070
     1
1070
    44
1040
1.0
1070
    74
1070
     0
1000
MTEXTEND
  0
POINT
  5
530
330
452
100
AcDbEntity
  8
Defpoints
  6
Continuous
 62
     0
100
AcDbPoint
 10
225.7003819497663
 20
392.9663286751432
 30
0.0
  0
POINT
  5
531
330
452
100
AcDbEntity
  8
Defpoints
  6
Continuous
 62
     0
100
AcDbPoint
 10
187.2003819497405
 20
330.4663286751432
 30
0.0
  0
POINT
  5
532
330
452
100
AcDbEntity
  8
Defpoints
  6
Continuous
 62
     0
100
AcDbPoint
 10
187.2003819497405
 20
398.4718698288777
 30
0.0
  0
ENDBLK
  5
454
330
452
100
AcDbEntity
  8
0
100
AcDbBlockEnd
  0
BLOCK
  5
535
330
534
100
AcDbEntity
  8
0
100
AcDbBlockBegin
  2
*D12
 70
     1
 10
0.0
 20
0.0
 30
0.0
  3
*D12
  1

  0
LINE
  5
606
330
534
100
AcDbEntity
  8
Quote(ISO)
  6
Continuous
 62
    96
370
    25
100
AcDbLine
 10
187.2003819497405
 20
331.4663286751433
 30
0.0
 11
187.2003819497405
 21
399.4718698288776
 31
0.0
  0
LINE
  5
607
330
534
100
AcDbEntity
  8
Quote(ISO)
  6
Continuous
 62
    96
370
    25
100
AcDbLine
 10
110.2003819497405
 20
331.4663286751433
 30
0.0
 11
110.2003819497405
 21
399.4718698288776
 31
0.0
  0
LINE
  5
608
330
534
100
AcDbEntity
  8
Quote(ISO)
  6
Continuous
 62
    96
370
    25
100
AcDbLine
 10
184.7003819497405
 20
398.4718698288777
 30
0.0
 11
112.7003819497405
 21
398.4718698288777
 31
0.0
  0
SOLID
  5
609
330
534
100
AcDbEntity
  8
Quote(ISO)
  6
Continuous
 62
    96
100
AcDbTrace
 10
184.7003819497405
 20
398.8885364955443
 30
0.0
 11
184.7003819497405
 21
398.055203162211
 31
0.0
 12
187.2003819497405
 22
398.4718698288777
 32
0.0
 13
187.2003819497405
 23
398.4718698288777
 33
0.0
  0
SOLID
  5
60A
330
534
100
AcDbEntity
  8
Quote(ISO)
  6
Continuous
 62
    96
100
AcDbTrace
 10
112.7003819497405
 20
398.8885364955443
 30
0.0
 11
112.7003819497405
 21
398.055203162211
 31
0.0
 12
110.2003819497405
 22
398.4718698288777
 32
0.0
 13
110.2003819497405
 23
398.4718698288777
 33
0.0
  0
MTEXT
  5
60B
330
534
100
AcDbEntity
  8
Quote(ISO)
  6
Continuous
 62
     7
370
    25
100
AcDbMText
 10
146.2078853603817
 20
402.7338698288776
 30
0.0
 40
3.5
 41
0.0
 71
     1
 72
     1
  1
\A1;77
  7
Corrente-ISO
 73
     1
 44
1.0
1001
ACAD
1000
MTEXTBEGIN
1070
    73
1070
     1
1070
    44
1040
1.0
1070
    74
1070
     0
1000
MTEXTEND
  0
POINT
  5
60C
330
534
100
AcDbEntity
  8
Defpoints
  6
Continuous
 62
     0
100
AcDbPoint
 10
187.2003819497405
 20
330.4663286751432
 30
0.0
  0
POINT
  5
60D
330
534
100
AcDbEntity
  8
Defpoints
  6
Continuous
 62
     0
100
AcDbPoint
 10
110.2003819497405
 20
330.4663286751432
 30
0.0
  0
POINT
  5
60E
330
534
100
AcDbEntity
  8
Defpoints
  6
Continuous
 62
     0
100
AcDbPoint
 10
110.2003819497405
 20
398.4718698288777
 30
0.0
  0
ENDBLK
  5
536
330
534
100
AcDbEntity
  8
0
100
AcDbBlockEnd
  0
BLOCK
  5
611
330
610
100
AcDbEntity
  8
0
100
AcDbBlockBegin
  2
*D13
 70
     1
 10
0.0
 20
0.0
 30
0.0
  3
*D13
  1

  0
LINE
  5
6E8
330
610
100
AcDbEntity
  8
Quote(ISO)
  6
Continuous
 62
    96
370
    25
100
AcDbLine
 10
110.2003819497405
 20
331.4663286751433
 30
0.0
 11
110.2003819497405
 21
399.4718698288776
 31
0.0
  0
LINE
  5
6E9
330
610
100
AcDbEntity
  8
Quote(ISO)
  6
Continuous
 62
    96
370
    25
100
AcDbLine
 10
71.70038194976621
 20
393.9663286751433
 30
0.0
 11
71.70038194976621
 21
399.4718698288776
 31
0.0
  0
LINE
  5
6EA
330
610
100
AcDbEntity
  8
Quote(ISO)
  6
Continuous
 62
    96
370
    25
100
AcDbLine
 10
107.7003819497405
 20
398.4718698288777
 30
0.0
 11
74.20038194976621
 21
398.4718698288777
 31
0.0
  0
SOLID
  5
6EB
330
610
100
AcDbEntity
  8
Quote(ISO)
  6
Continuous
 62
    96
100
AcDbTrace
 10
107.7003819497405
 20
398.8885364955443
 30
0.0
 11
107.7003819497405
 21
398.055203162211
 31
0.0
 12
110.2003819497405
 22
398.4718698288777
 32
0.0
 13
110.2003819497405
 23
398.4718698288777
 33
0.0
  0
SOLID
  5
6EC
330
610
100
AcDbEntity
  8
Quote(ISO)
  6
Continuous
 62
    96
100
AcDbTrace
 10
74.20038194976621
 20
398.8885364955443
 30
0.0
 11
74.20038194976621
 21
398.055203162211
 31
0.0
 12
71.70038194976621
 22
398.4718698288777
 32
0.0
 13
71.70038194976621
 23
398.4718698288777
 33
0.0
  0
MTEXT
  5
6ED
330
610
100
AcDbEntity
  8
Quote(ISO)
  6
Continuous
 62
     7
370
    25
100
AcDbMText
 10
86.39274211346414
 20
402.8102681917697
 30
0.0
 40
3.5
 41
0.0
 71
     1
 72
     1
  1
\A1;38.5
  7
Corrente-ISO
 73
     1
 44
1.0
1001
ACAD
1000
MTEXTBEGIN
1070
    73
1070
     1
1070
    44
1040
1.0
1070
    74
1070
     0
1000
MTEXTEND
  0
POINT
  5
6EE
330
610
100
AcDbEntity
  8
Defpoints
  6
Continuous
 62
     0
100
AcDbPoint
 10
110.2003819497405
 20
330.4663286751432
 30
0.0
  0
POINT
  5
6EF
330
610
100
AcDbEntity
  8
Defpoints
  6
Continuous
 62
     0
100
AcDbPoint
 10
71.70038194976621
 20
392.9663286751432
 30
0.0
  0
POINT
  5
6F0
330
610
100
AcDbEntity
  8
Defpoints
  6
Continuous
 62
     0
100
AcDbPoint
 10
71.70038194976621
 20
398.4718698288777
 30
0.0
  0
ENDBLK
  5
612
330
610
100
AcDbEntity
  8
0
100
AcDbBlockEnd
  0
BLOCK
  5
6F3
330
6F2
100
AcDbEntity
  8
0
100
AcDbBlockBegin
  2
*D14
 70
     1
 10
0.0
 20
0.0
 30
0.0
  3
*D14
  1

  0
LINE
  5
7CA
330
6F2
100
AcDbEntity
  8
Quote(ISO)
  6
Continuous
 62
    96
370
    25
100
AcDbLine
 10
111.2003819497405
 20
292.9663286751432
 30
0.0
 11
131.945562081304
 21
292.9663286751432
 31
0.0
  0
LINE
  5
7CB
330
6F2
100
AcDbEntity
  8
Quote(ISO)
  6
Continuous
 62
    96
370
    25
100
AcDbLine
 10
130.945562081304
 20
240.4663286751433
 30
0.0
 11
130.945562081304
 21
290.4663286751432
 31
0.0
  0
SOLID
  5
7CC
330
6F2
100
AcDbEntity
  8
Quote(ISO)
  6
Continuous
 62
    96
100
AcDbTrace
 10
130.5288954146374
 20
240.4663286751433
 30
0.0
 11
131.3622287479707
 21
240.4663286751433
 31
0.0
 12
130.945562081304
 22
237.9663286751433
 32
0.0
 13
130.945562081304
 23
237.9663286751433
 33
0.0
  0
SOLID
  5
7CD
330
6F2
100
AcDbEntity
  8
Quote(ISO)
  6
Continuous
 62
    96
100
AcDbTrace
 10
130.5288954146374
 20
290.4663286751432
 30
0.0
 11
131.3622287479707
 21
290.4663286751432
 31
0.0
 12
130.945562081304
 22
292.9663286751432
 32
0.0
 13
130.945562081304
 23
292.9663286751432
 33
0.0
  0
MTEXT
  5
7CE
330
6F2
100
AcDbEntity
  8
Quote(ISO)
  6
Continuous
 62
     7
370
    25
100
AcDbMText
 10
126.6238758602945
 20
262.94637642412
 30
0.0
 40
3.5
 41
0.0
 71
     1
 72
     1
  1
\A1;55
  7
Corrente-ISO
 11
0.0000000000000001
 21
1.0
 31
0.0
 73
     1
 44
1.0
1001
ACAD
1000
MTEXTBEGIN
1070
    73
1070
     1
1070
    44
1040
1.0
1070
    74
1070
     0
1000
MTEXTEND
  0
POINT
  5
7CF
330
6F2
100
AcDbEntity
  8
Defpoints
  6
Continuous
 62
     0
100
AcDbPoint
 10
130.945562081304
 20
237.9663286751433
 30
0.0
  0
POINT
  5
7D0
330
6F2
100
AcDbEntity
  8
Defpoints
  6
Continuous
 62
     0
100
AcDbPoint
 10
110.2003819497405
 20
292.9663286751432
 30
0.0
  0
POINT
  5
7D1
330
6F2
100
AcDbEntity
  8
Defpoints
  6
Continuous
 62
     0
100
AcDbPoint
 10
130.945562081304
 20
292.9663286751432
 30
0.0
  0
ENDBLK
  5
6F4
330
6F2
100
AcDbEntity
  8
0
100
AcDbBlockEnd
  0
BLOCK
  5
7D4
330
7D3
100
AcDbEntity
  8
0
100
AcDbBlockBegin
  2
*D15
 70
     1
 10
0.0
 20
0.0
 30
0.0
  3
*D15
  1

  0
LINE
  5
8B1
330
7D3
100
AcDbEntity
  8
Quote(ISO)
  6
Continuous
 62
    96
370
    25
100
AcDbLine
 10
111.2003819497405
 20
292.9663286751432
 30
0.0
 11
131.945562081304
 21
292.9663286751432
 31
0.0
  0
LINE
  5
8B2
330
7D3
100
AcDbEntity
  8
Quote(ISO)
  6
Continuous
 62
    96
370
    25
100
AcDbLine
 10
111.2003819497405
 20
327.9663286751433
 30
0.0
 11
131.9455620813041
 21
327.9663286751432
 31
0.0
  0
LINE
  5
8B3
330
7D3
100
AcDbEntity
  8
Quote(ISO)
  6
Continuous
 62
    96
370
    25
100
AcDbLine
 10
130.945562081304
 20
295.4663286751432
 30
0.0
 11
130.9455620813041
 21
325.4663286751432
 31
0.0
  0
SOLID
  5
8B4
330
7D3
100
AcDbEntity
  8
Quote(ISO)
  6
Continuous
 62
    96
100
AcDbTrace
 10
130.5288954146374
 20
295.4663286751432
 30
0.0
 11
131.3622287479707
 21
295.4663286751432
 31
0.0
 12
130.945562081304
 22
292.9663286751432
 32
0.0
 13
130.945562081304
 23
292.9663286751432
 33
0.0
  0
SOLID
  5
8B5
330
7D3
100
AcDbEntity
  8
Quote(ISO)
  6
Continuous
 62
    96
100
AcDbTrace
 10
130.5288954146374
 20
325.4663286751432
 30
0.0
 11
131.3622287479707
 21
325.4663286751432
 31
0.0
 12
130.9455620813041
 22
327.9663286751432
 32
0.0
 13
130.9455620813041
 23
327.9663286751432
 33
0.0
  0
MTEXT
  5
8B6
330
7D3
100
AcDbEntity
  8
Quote(ISO)
  6
Continuous
 62
     7
370
    25
100
AcDbMText
 10
126.6071637184118
 20
307.9475701485403
 30
0.0
 40
3.5
 41
0.0
 71
     1
 72
     1
  1
\A1;35
  7
Corrente-ISO
 11
0.0000000000000001
 21
1.0
 31
0.0
 73
     1
 44
1.0
1001
ACAD
1000
MTEXTBEGIN
1070
    73
1070
     1
1070
    44
1040
1.0
1070
    74
1070
     0
1000
MTEXTEND
  0
POINT
  5
8B7
330
7D3
100
AcDbEntity
  8
Defpoints
  6
Continuous
 62
     0
100
AcDbPoint
 10
110.2003819497405
 20
292.9663286751432
 30
0.0
  0
POINT
  5
8B8
330
7D3
100
AcDbEntity
  8
Defpoints
  6
Continuous
 62
     0
100
AcDbPoint
 10
110.2003819497405
 20
327.9663286751433
 30
0.0
  0
POINT
  5
8B9
330
7D3
100
AcDbEntity
  8
Defpoints
  6
Continuous
 62
     0
100
AcDbPoint
 10
130.9455620813041
 20
327.9663286751432
 30
0.0
  0
ENDBLK
  5
7D5
330
7D3
100
AcDbEntity
  8
0
100
AcDbBlockEnd
  0
BLOCK
  5
8BC
330
8BB
100
AcDbEntity
  8
0
100
AcDbBlockBegin
  2
*D16
 70
     1
 10
0.0
 20
0.0
 30
0.0
  3
*D16
  1

  0
LINE
  5
997
330
8BB
100
AcDbEntity
  8
Quote(ISO)
  6
Continuous
 62
    96
370
    25
100
AcDbLine
 10
111.2003819497405
 20
327.9663286751433
 30
0.0
 11
131.952782221238
 21
327.9663286751432
 31
0.0
  0
LINE
  5
998
330
8BB
100
AcDbEntity
  8
Quote(ISO)
  6
Continuous
 62
    96
370
    25
100
AcDbLine
 10
130.952782221238
 20
330.4663286751432
 30
0.0
 11
130.952782221238
 21
390.4663286751432
 31
0.0
  0
SOLID
  5
999
330
8BB
100
AcDbEntity
  8
Quote(ISO)
  6
Continuous
 62
    96
100
AcDbTrace
 10
130.5361155545713
 20
330.4663286751432
 30
0.0
 11
131.3694488879046
 21
330.4663286751432
 31
0.0
 12
130.952782221238
 22
327.9663286751432
 32
0.0
 13
130.952782221238
 23
327.9663286751432
 33
0.0
  0
SOLID
  5
99A
330
8BB
100
AcDbEntity
  8
Quote(ISO)
  6
Continuous
 62
    96
100
AcDbTrace
 10
130.5361155545713
 20
390.4663286751432
 30
0.0
 11
131.3694488879046
 21
390.4663286751432
 31
0.0
 12
130.952782221238
 22
392.9663286751432
 32
0.0
 13
130.952782221238
 23
392.9663286751432
 33
0.0
  0
MTEXT
  5
99B
330
8BB
100
AcDbEntity
  8
Quote(ISO)
  6
Continuous
 62
     7
370
    25
100
AcDbMText
 10
126.6167713071861
 20
357.9368266287585
 30
0.0
 40
3.5
 41
0.0
 71
     1
 72
     1
  1
\A1;65
  7
Corrente-ISO
 11
0.0000000000000001
 21
1.0
 31
0.0
 73
     1
 44
1.0
1001
ACAD
1000
MTEXTBEGIN
1070
    73
1070
     1
1070
    44
1040
1.0
1070
    74
1070
     0
1000
MTEXTEND
  0
POINT
  5
99C
330
8BB
100
AcDbEntity
  8
Defpoints
  6
Continuous
 62
     0
100
AcDbPoint
 10
110.2003819497405
 20
327.9663286751433
 30
0.0
  0
POINT
  5
99D
330
8BB
100
AcDbEntity
  8
Defpoints
  6
Continuous
 62
     0
100
AcDbPoint
 10
145.942332988728
 20
392.9663286751432
 30
0.0
  0
POINT
  5
99E
330
8BB
100
AcDbEntity
  8
Defpoints
  6
Continuous
 62
     0
100
AcDbPoint
 10
130.952782221238
 20
392.9663286751432
 30
0.0
  0
ENDBLK
  5
8BD
330
8BB
100
AcDbEntity
  8
0
100
AcDbBlockEnd
  0
BLOCK
  5
9A1
330
9A0
100
AcDbEntity
  8
0
100
AcDbBlockBegin
  2
*D17
 70
     1
 10
0.0
 20
0.0
 30
0.0
  3
*D17
  1

  0
LINE
  5
A54
330
9A0
100
AcDbEntity
  8
Quote(ISO)
  6
Continuous
 62
    96
370
    25
100
AcDbLine
 10
142.5617228236733
 20
390.4663286751432
 30
0.0
 11
142.5617228236733
 21
240.4663286751433
 31
0.0
  0
SOLID
  5
A55
330
9A0
100
AcDbEntity
  8
Quote(ISO)
  6
Continuous
 62
    96
100
AcDbTrace
 10
142.1450561570067
 20
390.4663286751432
 30
0.0
 11
142.97838949034
 21
390.4663286751432
 31
0.0
 12
142.5617228236733
 22
392.9663286751432
 32
0.0
 13
142.5617228236733
 23
392.9663286751432
 33
0.0
  0
SOLID
  5
A56
330
9A0
100
AcDbEntity
  8
Quote(ISO)
  6
Continuous
 62
    96
100
AcDbTrace
 10
142.1450561570066
 20
240.4663286751433
 30
0.0
 11
142.97838949034
 21
240.4663286751433
 31
0.0
 12
142.5617228236733
 22
237.9663286751433
 32
0.0
 13
142.5617228236733
 23
237.9663286751433
 33
0.0
  0
MTEXT
  5
A57
330
9A0
100
AcDbEntity
  8
Quote(ISO)
  6
Continuous
 62
     7
370
    25
100
AcDbMText
 10
138.2257119096214
 20
311.7514582795089
 30
0.0
 40
3.5
 41
0.0
 71
     1
 72
     1
  1
\A1;155
  7
Corrente-ISO
 11
0.0000000000000001
 21
1.0
 31
0.0
 73
     1
 44
1.0
1001
ACAD
1000
MTEXTBEGIN
1070
    73
1070
     1
1070
    44
1040
1.0
1070
    74
1070
     0
1000
MTEXTEND
  0
POINT
  5
A58
330
9A0
100
AcDbEntity
  8
Defpoints
  6
Continuous
 62
     0
100
AcDbPoint
 10
142.5617228236733
 20
392.9663286751432
 30
0.0
  0
POINT
  5
A59
330
9A0
100
AcDbEntity
  8
Defpoints
  6
Continuous
 62
     0
100
AcDbPoint
 10
142.5617228236732
 20
237.9663286751433
 30
0.0
  0
POINT
  5
A5A
330
9A0
100
AcDbEntity
  8
Defpoints
  6
Continuous
 62
     0
100
AcDbPoint
 10
142.5617228236733
 20
237.9663286751433
 30
0.0
  0
ENDBLK
  5
9A2
330
9A0
100
AcDbEntity
  8
0
100
AcDbBlockEnd
  0
BLOCK
  5
A5D
330
A5C
100
AcDbEntity
  8
0
100
AcDbBlockBegin
  2
*D18
 70
     1
 10
0.0
 20
0.0
 30
0.0
  3
*D18
  1

  0
LINE
  5
B34
330
A5C
100
AcDbEntity
  8
Quote(ISO)
  6
Continuous
 62
    96
370
    25
100
AcDbLine
 10
180.7003819497405
 20
298.4663286751433
 30
0.0
 11
180.7003819497405
 21
278.4663286751432
 31
0.0
  0
LINE
  5
B35
330
A5C
100
AcDbEntity
  8
Quote(ISO)
  6
Continuous
 62
    96
370
    25
100
AcDbLine
 10
193.7003819497405
 20
298.4663286751433
 30
0.0
 11
193.7003819497405
 21
278.4663286751432
 31
0.0
  0
LINE
  5
B36
330
A5C
100
AcDbEntity
  8
Quote(ISO)
  6
Continuous
 62
    96
370
    25
100
AcDbLine
 10
183.2003819497405
 20
279.4663286751433
 30
0.0
 11
191.2003819497405
 21
279.4663286751433
 31
0.0
  0
SOLID
  5
B37
330
A5C
100
AcDbEntity
  8
Quote(ISO)
  6
Continuous
 62
    96
100
AcDbTrace
 10
183.2003819497405
 20
279.8829953418099
 30
0.0
 11
183.2003819497405
 21
279.0496620084766
 31
0.0
 12
180.7003819497405
 22
279.4663286751433
 32
0.0
 13
180.7003819497405
 23
279.4663286751433
 33
0.0
  0
SOLID
  5
B38
330
A5C
100
AcDbEntity
  8
Quote(ISO)
  6
Continuous
 62
    96
100
AcDbTrace
 10
191.2003819497405
 20
279.8829953418099
 30
0.0
 11
191.2003819497405
 21
279.0496620084766
 31
0.0
 12
193.7003819497405
 22
279.4663286751433
 32
0.0
 13
193.7003819497405
 23
279.4663286751433
 33
0.0
  0
MTEXT
  5
B39
330
A5C
100
AcDbEntity
  8
Quote(ISO)
  6
Continuous
 62
     7
370
    25
100
AcDbMText
 10
184.8582946373257
 20
283.8047270380354
 30
0.0
 40
3.5
 41
0.0
 71
     1
 72
     1
  1
\A1;13
  7
Corrente-ISO
 73
     1
 44
1.0
1001
ACAD
1000
MTEXTBEGIN
1070
    73
1070
     1
1070
    44
1040
1.0
1070
    74
1070
     0
1000
MTEXTEND
  0
POINT
  5
B3A
330
A5C
100
AcDbEntity
  8
Defpoints
  6
Continuous
 62
     0
100
AcDbPoint
 10
180.7003819497405
 20
299.4663286751432
 30
0.0
  0
POINT
  5
B3B
330
A5C
100
AcDbEntity
  8
Defpoints
  6
Continuous
 62
     0
100
AcDbPoint
 10
193.7003819497405
 20
299.4663286751432
 30
0.0
  0
POINT
  5
B3C
330
A5C
100
AcDbEntity
  8
Defpoints
  6
Continuous
 62
     0
100
AcDbPoint
 10
193.7003819497405
 20
279.4663286751433
 30
0.0
  0
ENDBLK
  5
A5E
330
A5C
100
AcDbEntity
  8
0
100
AcDbBlockEnd
  0
BLOCK
  5
B3F
330
B3E
100
AcDbEntity
  8
0
100
AcDbBlockBegin
  2
*D19
 70
     1
 10
0.0
 20
0.0
 30
0.0
  3
*D19
  1

  0
LINE
  5
C0A
330
B3E
100
AcDbEntity
  8
Quote(ISO)
  6
Continuous
 62
    96
370
    25
100
AcDbLine
 10
78.70038194962654
 20
183.7721684924191
 30
0.0
 11
78.7003819496228
 21
196.4136340563979
 31
0.0
  0
LINE
  5
C0B
330
B3E
100
AcDbEntity
  8
Quote(ISO)
  6
Continuous
 62
    96
370
    25
100
AcDbLine
 10
218.7003819496265
 20
183.7721684924607
 30
0.0
 11
218.7003819496228
 21
196.4136340564396
 31
0.0
  0
LINE
  5
C0C
330
B3E
100
AcDbEntity
  8
Quote(ISO)
  6
Continuous
 62
    96
370
    25
100
AcDbLine
 10
81.2003819496231
 20
195.4136340563986
 30
0.0
 11
216.2003819496231
 21
195.4136340564388
 31
0.0
  0
SOLID
  5
C0D
330
B3E
100
AcDbEntity
  8
Quote(ISO)
  6
Continuous
 62
    96
100
AcDbTrace
 10
81.20038194962296
 20
195.8303007230653
 30
0.0
 11
81.20038194962321
 21
194.996967389732
 31
0.0
 12
78.70038194962309
 22
195.4136340563979
 32
0.0
 13
78.70038194962309
 23
195.4136340563979
 33
0.0
  0
SOLID
  5
C0E
330
B3E
100
AcDbEntity
  8
Quote(ISO)
  6
Continuous
 62
    96
100
AcDbTrace
 10
216.200381949623
 20
195.8303007231054
 30
0.0
 11
216.2003819496232
 21
194.9969673897721
 31
0.0
 12
218.7003819496231
 22
195.4136340564396
 32
0.0
 13
218.7003819496231
 23
195.4136340564396
 33
0.0
  0
MTEXT
  5
C0F
330
B3E
100
AcDbEntity
  8
Quote(ISO)
  6
Continuous
 62
     7
370
    25
100
AcDbMText
 10
145.0046111447105
 20
199.7496449704695
 30
0.0
 40
3.5
 41
0.0
 71
     1
 72
     1
  1
\A1;140
  7
Corrente-ISO
 73
     1
 44
1.0
1001
ACAD
1000
MTEXTBEGIN
1070
    73
1070
     1
1070
    44
1040
1.0
1070
    74
1070
     0
1000
MTEXTEND
  0
POINT
  5
C10
330
B3E
100
AcDbEntity
  8
Defpoints
  6
Continuous
 62
     0
100
AcDbPoint
 10
78.70038194962685
 20
182.7721684924191
 30
0.0
  0
POINT
  5
C11
330
B3E
100
AcDbEntity
  8
Defpoints
  6
Continuous
 62
     0
100
AcDbPoint
 10
218.7003819496268
 20
182.7721684924607
 30
0.0
  0
POINT
  5
C12
330
B3E
100
AcDbEntity
  8
Defpoints
  6
Continuous
 62
     0
100
AcDbPoint
 10
218.7003819496231
 20
195.4136340564396
 30
0.0
  0
ENDBLK
  5
B40
330
B3E
100
AcDbEntity
  8
0
100
AcDbBlockEnd
  0
BLOCK
  5
C15
330
C14
100
AcDbEntity
  8
0
100
AcDbBlockBegin
  2
*D20
 70
     1
 10
0.0
 20
0.0
 30
0.0
  3
*D20
  1

  0
LINE
  5
CE0
330
C14
100
AcDbEntity
  8
Quote(ISO)
  6
Continuous
 62
    96
370
    25
100
AcDbLine
 10
66.70038194962832
 20
178.7721684924631
 30
0.0
 11
66.70038194962832
 21
204.7160426033385
 31
0.0
  0
LINE
  5
CE1
330
C14
100
AcDbEntity
  8
Quote(ISO)
  6
Continuous
 62
    96
370
    25
100
AcDbLine
 10
230.7003819496284
 20
178.7721684925117
 30
0.0
 11
230.7003819496284
 21
204.7160426033385
 31
0.0
  0
LINE
  5
CE2
330
C14
100
AcDbEntity
  8
Quote(ISO)
  6
Continuous
 62
    96
370
    25
100
AcDbLine
 10
69.20038194962832
 20
203.7160426033385
 30
0.0
 11
228.2003819496283
 21
203.7160426033385
 31
0.0
  0
SOLID
  5
CE3
330
C14
100
AcDbEntity
  8
Quote(ISO)
  6
Continuous
 62
    96
100
AcDbTrace
 10
69.20038194962832
 20
204.1327092700052
 30
0.0
 11
69.20038194962832
 21
203.2993759366719
 31
0.0
 12
66.70038194962832
 22
203.7160426033385
 32
0.0
 13
66.70038194962832
 23
203.7160426033385
 33
0.0
  0
SOLID
  5
CE4
330
C14
100
AcDbEntity
  8
Quote(ISO)
  6
Continuous
 62
    96
100
AcDbTrace
 10
228.2003819496283
 20
204.1327092700052
 30
0.0
 11
228.2003819496283
 21
203.2993759366719
 31
0.0
 12
230.7003819496284
 22
203.7160426033385
 32
0.0
 13
230.7003819496284
 23
203.7160426033385
 33
0.0
  0
MTEXT
  5
CE5
330
C14
100
AcDbEntity
  8
Quote(ISO)
  6
Continuous
 62
     7
370
    25
100
AcDbMText
 10
145.0058048691372
 20
208.0520535173904
 30
0.0
 40
3.5
 41
0.0
 71
     1
 72
     1
  1
\A1;164
  7
Corrente-ISO
 73
     1
 44
1.0
1001
ACAD
1000
MTEXTBEGIN
1070
    73
1070
     1
1070
    44
1040
1.0
1070
    74
1070
     0
1000
MTEXTEND
  0
POINT
  5
CE6
330
C14
100
AcDbEntity
  8
Defpoints
  6
Continuous
 62
     0
100
AcDbPoint
 10
66.70038194962832
 20
177.7721684924631
 30
0.0
  0
POINT
  5
CE7
330
C14
100
AcDbEntity
  8
Defpoints
  6
Continuous
 62
     0
100
AcDbPoint
 10
230.7003819496284
 20
177.7721684925117
 30
0.0
  0
POINT
  5
CE8
330
C14
100
AcDbEntity
  8
Defpoints
  6
Continuous
 62
     0
100
AcDbPoint
 10
230.7003819496284
 20
203.7160426033385
 30
0.0
  0
ENDBLK
  5
C16
330
C14
100
AcDbEntity
  8
0
100
AcDbBlockEnd
  0
BLOCK
  5
CEB
330
CEA
100
AcDbEntity
  8
0
100
AcDbBlockBegin
  2
*D21
 70
     1
 10
0.0
 20
0.0
 30
0.0
  3
*D21
  1

  0
LINE
  5
DC2
330
CEA
100
AcDbEntity
  8
Quote(ISO)
  6
Continuous
 62
    96
370
    25
100
AcDbLine
 10
77.65012941793476
 20
175.7721684924186
 30
0.0
 11
89.21481224288736
 21
175.7721684924186
 31
0.0
  0
LINE
  5
DC3
330
CEA
100
AcDbEntity
  8
Quote(ISO)
  6
Continuous
 62
    96
370
    25
100
AcDbLine
 10
77.65012941795838
 20
96.19075277946075
 30
0.0
 11
89.21481224288735
 21
96.19075277946075
 31
0.0
  0
LINE
  5
DC4
330
CEA
100
AcDbEntity
  8
Quote(ISO)
  6
Continuous
 62
    96
370
    25
100
AcDbLine
 10
88.21481224288737
 20
173.2721684924186
 30
0.0
 11
88.21481224288735
 21
98.69075277946075
 31
0.0
  0
SOLID
  5
DC5
330
CEA
100
AcDbEntity
  8
Quote(ISO)
  6
Continuous
 62
    96
100
AcDbTrace
 10
87.79814557622069
 20
173.2721684924186
 30
0.0
 11
88.63147890955403
 21
173.2721684924186
 31
0.0
 12
88.21481224288737
 22
175.7721684924186
 32
0.0
 13
88.21481224288737
 23
175.7721684924186
 33
0.0
  0
SOLID
  5
DC6
330
CEA
100
AcDbEntity
  8
Quote(ISO)
  6
Continuous
 62
    96
100
AcDbTrace
 10
87.79814557622067
 20
98.69075277946075
 30
0.0
 11
88.63147890955401
 21
98.69075277946075
 31
0.0
 12
88.21481224288735
 22
96.19075277946075
 32
0.0
 13
88.21481224288735
 23
96.19075277946075
 33
0.0
  0
MTEXT
  5
DC7
330
CEA
100
AcDbEntity
  8
Quote(ISO)
  6
Continuous
 62
     7
370
    25
100
AcDbMText
 10
83.24612738613426
 20
130.6419313044253
 30
0.0
 40
3.5
 41
0.0
 71
     1
 72
     1
  1
\A1; 81,5
  7
Corrente-ISO
 11
0.0000000000000001
 21
1.0
 31
0.0
 73
     1
 44
1.0
1001
ACAD
1000
MTEXTBEGIN
1070
    73
1070
     1
1070
    44
1040
1.0
1070
    74
1070
     0
1000
MTEXTEND
  0
POINT
  5
DC8
330
CEA
100
AcDbEntity
  8
Defpoints
  6
Continuous
 62
     0
100
AcDbPoint
 10
76.65012941793476
 20
175.7721684924186
 30
0.0
  0
POINT
  5
DC9
330
CEA
100
AcDbEntity
  8
Defpoints
  6
Continuous
 62
     0
100
AcDbPoint
 10
76.65012941795838
 20
96.19075277946075
 30
0.0
  0
POINT
  5
DCA
330
CEA
100
AcDbEntity
  8
Defpoints
  6
Continuous
 62
     0
100
AcDbPoint
 10
88.21481224288735
 20
96.19075277946075
 30
0.0
  0
ENDBLK
  5
CEC
330
CEA
100
AcDbEntity
  8
0
100
AcDbBlockEnd
  0
BLOCK
  5
DCD
330
DCC
100
AcDbEntity
  8
0
100
AcDbBlockBegin
  2
*D22
 70
     1
 10
0.0
 20
0.0
 30
0.0
  3
*D22
  1

  0
LINE
  5
EA4
330
DCC
100
AcDbEntity
  8
Quote(ISO)
  6
Continuous
 62
    96
370
    25
100
AcDbLine
 10
219.7506344813231
 20
175.7721684924613
 30
0.0
 11
209.7506344813467
 21
175.7721684924613
 31
0.0
  0
LINE
  5
EA5
330
DCC
100
AcDbEntity
  8
Quote(ISO)
  6
Continuous
 62
    96
370
    25
100
AcDbLine
 10
219.7506344813467
 20
96.19075277950342
 30
0.0
 11
209.7506344813467
 21
96.19075277950342
 31
0.0
  0
LINE
  5
EA6
330
DCC
100
AcDbEntity
  8
Quote(ISO)
  6
Continuous
 62
    96
370
    25
100
AcDbLine
 10
210.7506344813467
 20
173.2721684924613
 30
0.0
 11
210.7506344813467
 21
98.69075277950342
 31
0.0
  0
SOLID
  5
EA7
330
DCC
100
AcDbEntity
  8
Quote(ISO)
  6
Continuous
 62
    96
100
AcDbTrace
 10
210.3339678146801
 20
173.2721684924613
 30
0.0
 11
211.1673011480134
 21
173.2721684924613
 31
0.0
 12
210.7506344813467
 22
175.7721684924613
 32
0.0
 13
210.7506344813467
 23
175.7721684924613
 33
0.0
  0
SOLID
  5
EA8
330
DCC
100
AcDbEntity
  8
Quote(ISO)
  6
Continuous
 62
    96
100
AcDbTrace
 10
210.3339678146801
 20
98.69075277950342
 30
0.0
 11
211.1673011480134
 21
98.69075277950342
 31
0.0
 12
210.7506344813467
 22
96.19075277950342
 32
0.0
 13
210.7506344813467
 23
96.19075277950342
 33
0.0
  0
MTEXT
  5
EA9
330
DCC
100
AcDbEntity
  8
Quote(ISO)
  6
Continuous
 62
     7
370
    25
100
AcDbMText
 10
205.7819496245937
 20
130.6419313044681
 30
0.0
 40
3.5
 41
0.0
 71
     1
 72
     1
  1
\A1; 81,5
  7
Corrente-ISO
 11
0.0000000000000001
 21
1.0
 31
0.0
 73
     1
 44
1.0
1001
ACAD
1000
MTEXTBEGIN
1070
    73
1070
     1
1070
    44
1040
1.0
1070
    74
1070
     0
1000
MTEXTEND
  0
POINT
  5
EAA
330
DCC
100
AcDbEntity
  8
Defpoints
  6
Continuous
 62
     0
100
AcDbPoint
 10
220.7506344813231
 20
175.7721684924613
 30
0.0
  0
POINT
  5
EAB
330
DCC
100
AcDbEntity
  8
Defpoints
  6
Continuous
 62
     0
100
AcDbPoint
 10
220.7506344813467
 20
96.19075277950342
 30
0.0
  0
POINT
  5
EAC
330
DCC
100
AcDbEntity
  8
Defpoints
  6
Continuous
 62
     0
100
AcDbPoint
 10
210.7506344813467
 20
96.19075277950342
 30
0.0
  0
ENDBLK
  5
DCE
330
DCC
100
AcDbEntity
  8
0
100
AcDbBlockEnd
  0
BLOCK
  5
EAF
330
EAE
100
AcDbEntity
  8
0
100
AcDbBlockBegin
  2
*D23
 70
     1
 10
0.0
 20
0.0
 30
0.0
  3
*D23
  1

  0
LINE
  5
F86
330
EAE
100
AcDbEntity
  8
Quote(ISO)
  6
Continuous
 62
    96
370
    25
100
AcDbLine
 10
231.7003819496529
 20
94.85100681739817
 30
0.0
 11
259.3515957894069
 21
94.85100681739817
 31
0.0
  0
LINE
  5
F87
330
EAE
100
AcDbEntity
  8
Quote(ISO)
  6
Continuous
 62
    96
370
    25
100
AcDbLine
 10
221.7003819496254
 20
187.7721684925088
 30
0.0
 11
259.351595789407
 21
187.7721684925088
 31
0.0
  0
LINE
  5
F88
330
EAE
100
AcDbEntity
  8
Quote(ISO)
  6
Continuous
 62
    96
370
    25
100
AcDbLine
 10
258.3515957894069
 20
97.35100681739817
 30
0.0
 11
258.351595789407
 21
185.2721684925088
 31
0.0
  0
SOLID
  5
F89
330
EAE
100
AcDbEntity
  8
Quote(ISO)
  6
Continuous
 62
    96
100
AcDbTrace
 10
257.9349291227402
 20
97.35100681739817
 30
0.0
 11
258.7682624560736
 21
97.35100681739817
 31
0.0
 12
258.3515957894069
 22
94.85100681739817
 32
0.0
 13
258.3515957894069
 23
94.85100681739817
 33
0.0
  0
SOLID
  5
F8A
330
EAE
100
AcDbEntity
  8
Quote(ISO)
  6
Continuous
 62
    96
100
AcDbTrace
 10
257.9349291227403
 20
185.2721684925088
 30
0.0
 11
258.7682624560737
 21
185.2721684925088
 31
0.0
 12
258.351595789407
 22
187.7721684925088
 32
0.0
 13
258.351595789407
 23
187.7721684925088
 33
0.0
  0
MTEXT
  5
F8B
330
EAE
100
AcDbEntity
  8
Quote(ISO)
  6
Continuous
 62
     7
370
    25
100
AcDbMText
 10
254.0131974265147
 20
138.804766372562
 30
0.0
 40
3.5
 41
0.0
 71
     1
 72
     1
  1
\A1;93
  7
Corrente-ISO
 11
0.0000000000000001
 21
1.0
 31
0.0
 73
     1
 44
1.0
1001
ACAD
1000
MTEXTBEGIN
1070
    73
1070
     1
1070
    44
1040
1.0
1070
    74
1070
     0
1000
MTEXTEND
  0
POINT
  5
F8C
330
EAE
100
AcDbEntity
  8
Defpoints
  6
Continuous
 62
     0
100
AcDbPoint
 10
230.700381949653
 20
94.85100681739817
 30
0.0
  0
POINT
  5
F8D
330
EAE
100
AcDbEntity
  8
Defpoints
  6
Continuous
 62
     0
100
AcDbPoint
 10
220.7003819496254
 20
187.7721684925088
 30
0.0
  0
POINT
  5
F8E
330
EAE
100
AcDbEntity
  8
Defpoints
  6
Continuous
 62
     0
100
AcDbPoint
 10
258.351595789407
 20
187.7721684925088
 30
0.0
  0
ENDBLK
  5
EB0
330
EAE
100
AcDbEntity
  8
0
100
AcDbBlockEnd
  0
BLOCK
  5
F93
330
F92
100
AcDbEntity
  8
0
100
AcDbBlockBegin
  2
*D24
 70
     1
 10
0.0
 20
0.0
 30
0.0
  3
*D24
  1

  0
LINE
  5
105E
330
F92
100
AcDbEntity
  8
Quote(ISO)
  6
Continuous
 62
    96
370
    25
100
AcDbLine
 10
221.7003819496254
 20
187.7721684925088
 30
0.0
 11
270.2322760775684
 21
187.7721684925088
 31
0.0
  0
LINE
  5
105F
330
F92
100
AcDbEntity
  8
Quote(ISO)
  6
Continuous
 62
    96
370
    25
100
AcDbLine
 10
243.8702549307409
 20
63.77216849251147
 30
0.0
 11
270.2322760775683
 21
63.77216849251147
 31
0.0
  0
LINE
  5
1060
330
F92
100
AcDbEntity
  8
Quote(ISO)
  6
Continuous
 62
    96
370
    25
100
AcDbLine
 10
269.2322760775684
 20
185.2721684925088
 30
0.0
 11
269.2322760775683
 21
66.27216849251147
 31
0.0
  0
SOLID
  5
1061
330
F92
100
AcDbEntity
  8
Quote(ISO)
  6
Continuous
 62
    96
100
AcDbTrace
 10
268.8156094109017
 20
185.2721684925088
 30
0.0
 11
269.648942744235
 21
185.2721684925088
 31
0.0
 12
269.2322760775684
 22
187.7721684925088
 32
0.0
 13
269.2322760775684
 23
187.7721684925088
 33
0.0
  0
SOLID
  5
1062
330
F92
100
AcDbEntity
  8
Quote(ISO)
  6
Continuous
 62
    96
100
AcDbTrace
 10
268.8156094109016
 20
66.27216849251147
 30
0.0
 11
269.648942744235
 21
66.27216849251147
 31
0.0
 12
269.2322760775683
 22
63.77216849251147
 32
0.0
 13
269.2322760775683
 23
63.77216849251147
 33
0.0
  0
MTEXT
  5
1063
330
F92
100
AcDbEntity
  8
Quote(ISO)
  6
Continuous
 62
     7
370
    25
100
AcDbMText
 10
264.955951384526
 20
122.0775913528794
 30
0.0
 40
3.5
 41
0.0
 71
     1
 72
     1
  1
\A1;124
  7
Corrente-ISO
 11
0.0000000000000001
 21
1.0
 31
0.0
 73
     1
 44
1.0
1001
ACAD
1000
MTEXTBEGIN
1070
    73
1070
     1
1070
    44
1040
1.0
1070
    74
1070
     0
1000
MTEXTEND
  0
POINT
  5
1064
330
F92
100
AcDbEntity
  8
Defpoints
  6
Continuous
 62
     0
100
AcDbPoint
 10
220.7003819496254
 20
187.7721684925088
 30
0.0
  0
POINT
  5
1065
330
F92
100
AcDbEntity
  8
Defpoints
  6
Continuous
 62
     0
100
AcDbPoint
 10
242.8702549307409
 20
63.77216849251147
 30
0.0
  0
POINT
  5
1066
330
F92
100
AcDbEntity
  8
Defpoints
  6
Continuous
 62
     0
100
AcDbPoint
 10
269.2322760775683
 20
63.77216849251147
 30
0.0
  0
ENDBLK
  5
F94
330
F92
100
AcDbEntity
  8
0
100
AcDbBlockEnd
  0
BLOCK
  5
1069
330
1068
100
AcDbEntity
  8
0
100
AcDbBlockBegin
  2
*D25
 70
     1
 10
0.0
 20
0.0
 30
0.0
  3
*D25
  1

  0
LINE
  5
1140
330
1068
100
AcDbEntity
  8
Quote(ISO)
  6
Continuous
 62
    96
370
    25
100
AcDbLine
 10
50.2003819496611
 20
65.27216849245416
 30
0.0
 11
50.20038194967451
 21
20.06511508347056
 31
0.0
  0
LINE
  5
1141
330
1068
100
AcDbEntity
  8
Quote(ISO)
  6
Continuous
 62
    96
370
    25
100
AcDbLine
 10
71.70038194966898
 20
40.76254954918179
 30
0.0
 11
71.70038194967512
 21
20.06511508347693
 31
0.0
  0
LINE
  5
1142
330
1068
100
AcDbEntity
  8
Quote(ISO)
  6
Continuous
 62
    96
370
    25
100
AcDbLine
 10
52.70038194967422
 20
21.06511508347129
 30
0.0
 11
69.20038194967482
 21
21.06511508347619
 31
0.0
  0
SOLID
  5
1143
330
1068
100
AcDbEntity
  8
Quote(ISO)
  6
Continuous
 62
    96
100
AcDbTrace
 10
52.70038194967408
 20
21.48178175013796
 30
0.0
 11
52.70038194967433
 21
20.64844841680463
 31
0.0
 12
50.20038194967422
 22
21.06511508347056
 32
0.0
 13
50.20038194967422
 23
21.06511508347056
 33
0.0
  0
SOLID
  5
1144
330
1068
100
AcDbEntity
  8
Quote(ISO)
  6
Continuous
 62
    96
100
AcDbTrace
 10
69.20038194967471
 20
21.48178175014286
 30
0.0
 11
69.20038194967495
 21
20.64844841680952
 31
0.0
 12
71.70038194967482
 22
21.06511508347693
 32
0.0
 13
71.70038194967482
 23
21.06511508347693
 33
0.0
  0
MTEXT
  5
1145
330
1068
100
AcDbEntity
  8
Quote(ISO)
  6
Continuous
 62
     7
370
    25
100
AcDbMText
 10
56.36170527845902
 20
25.40112599752422
 30
0.0
 40
3.5
 41
0.0
 71
     1
 72
     1
  1
\A1;21.5
  7
Corrente-ISO
 73
     1
 44
1.0
1001
ACAD
1000
MTEXTBEGIN
1070
    73
1070
     1
1070
    44
1040
1.0
1070
    74
1070
     0
1000
MTEXTEND
  0
POINT
  5
1146
330
1068
100
AcDbEntity
  8
Defpoints
  6
Continuous
 62
     0
100
AcDbPoint
 10
50.2003819496608
 20
66.27216849245415
 30
0.0
  0
POINT
  5
1147
330
1068
100
AcDbEntity
  8
Defpoints
  6
Continuous
 62
     0
100
AcDbPoint
 10
71.70038194966868
 20
41.7625495491818
 30
0.0
  0
POINT
  5
1148
330
1068
100
AcDbEntity
  8
Defpoints
  6
Continuous
 62
     0
100
AcDbPoint
 10
71.70038194967482
 20
21.06511508347693
 30
0.0
  0
ENDBLK
  5
106A
330
1068
100
AcDbEntity
  8
0
100
AcDbBlockEnd
  0
BLOCK
  5
114B
330
114A
100
AcDbEntity
  8
0
100
AcDbBlockBegin
  2
*D26
 70
     1
 10
0.0
 20
0.0
 30
0.0
  3
*D26
  1

  0
LINE
  5
1216
330
114A
100
AcDbEntity
  8
Quote(ISO)
  6
Continuous
 62
    96
370
    25
100
AcDbLine
 10
71.70038194966796
 20
43.26254954918051
 30
0.0
 11
71.70038194966796
 21
19.7890571114927
 31
0.0
  0
LINE
  5
1217
330
114A
100
AcDbEntity
  8
Quote(ISO)
  6
Continuous
 62
    96
370
    25
100
AcDbLine
 10
225.7003819496687
 20
40.76254954922751
 30
0.0
 11
225.7003819496687
 21
19.7890571114927
 31
0.0
  0
LINE
  5
1218
330
114A
100
AcDbEntity
  8
Quote(ISO)
  6
Continuous
 62
    96
370
    25
100
AcDbLine
 10
74.20038194966796
 20
20.7890571114927
 30
0.0
 11
223.2003819496687
 21
20.7890571114927
 31
0.0
  0
SOLID
  5
1219
330
114A
100
AcDbEntity
  8
Quote(ISO)
  6
Continuous
 62
    96
100
AcDbTrace
 10
74.20038194966796
 20
21.20572377815937
 30
0.0
 11
74.20038194966796
 21
20.37239044482603
 31
0.0
 12
71.70038194966796
 22
20.7890571114927
 32
0.0
 13
71.70038194966796
 23
20.7890571114927
 33
0.0
  0
SOLID
  5
121A
330
114A
100
AcDbEntity
  8
Quote(ISO)
  6
Continuous
 62
    96
100
AcDbTrace
 10
223.2003819496687
 20
21.20572377815937
 30
0.0
 11
223.2003819496687
 21
20.37239044482603
 31
0.0
 12
225.7003819496687
 22
20.7890571114927
 32
0.0
 13
225.7003819496687
 23
20.7890571114927
 33
0.0
  0
MTEXT
  5
121B
330
114A
100
AcDbEntity
  8
Quote(ISO)
  6
Continuous
 62
     7
370
    25
100
AcDbMText
 10
145.0058048691838
 20
25.12506802554455
 30
0.0
 40
3.5
 41
0.0
 71
     1
 72
     1
  1
\A1;154
  7
Corrente-ISO
 73
     1
 44
1.0
1001
ACAD
1000
MTEXTBEGIN
1070
    73
1070
     1
1070
    44
1040
1.0
1070
    74
1070
     0
1000
MTEXTEND
  0
POINT
  5
121C
330
114A
100
AcDbEntity
  8
Defpoints
  6
Continuous
 62
     0
100
AcDbPoint
 10
71.70038194966796
 20
44.26254954918052
 30
0.0
  0
POINT
  5
121D
330
114A
100
AcDbEntity
  8
Defpoints
  6
Continuous
 62
     0
100
AcDbPoint
 10
225.7003819496687
 20
41.7625495492275
 30
0.0
  0
POINT
  5
121E
330
114A
100
AcDbEntity
  8
Defpoints
  6
Continuous
 62
     0
100
AcDbPoint
 10
225.7003819496687
 20
20.7890571114927
 30
0.0
  0
ENDBLK
  5
114C
330
114A
100
AcDbEntity
  8
0
100
AcDbBlockEnd
  0
BLOCK
  5
1221
330
1220
100
AcDbEntity
  8
0
100
AcDbBlockBegin
  2
*D27
 70
     1
 10
0.0
 20
0.0
 30
0.0
  3
*D27
  1

  0
LINE
  5
12F8
330
1220
100
AcDbEntity
  8
Quote(ISO)
  6
Continuous
 62
    96
370
    25
100
AcDbLine
 10
225.7003819496687
 20
40.76254954922751
 30
0.0
 11
225.7003819496687
 21
19.77641209139673
 31
0.0
  0
LINE
  5
12F9
330
1220
100
AcDbEntity
  8
Quote(ISO)
  6
Continuous
 62
    96
370
    25
100
AcDbLine
 10
247.2003819496623
 20
65.27216849251274
 30
0.0
 11
247.2003819496623
 21
19.77641209139673
 31
0.0
  0
LINE
  5
12FA
330
1220
100
AcDbEntity
  8
Quote(ISO)
  6
Continuous
 62
    96
370
    25
100
AcDbLine
 10
228.2003819496687
 20
20.77641209139673
 30
0.0
 11
244.7003819496623
 21
20.77641209139673
 31
0.0
  0
SOLID
  5
12FB
330
1220
100
AcDbEntity
  8
Quote(ISO)
  6
Continuous
 62
    96
100
AcDbTrace
 10
228.2003819496687
 20
21.1930787580634
 30
0.0
 11
228.2003819496687
 21
20.35974542473006
 31
0.0
 12
225.7003819496687
 22
20.77641209139673
 32
0.0
 13
225.7003819496687
 23
20.77641209139673
 33
0.0
  0
SOLID
  5
12FC
330
1220
100
AcDbEntity
  8
Quote(ISO)
  6
Continuous
 62
    96
100
AcDbTrace
 10
244.7003819496623
 20
21.1930787580634
 30
0.0
 11
244.7003819496623
 21
20.35974542473006
 31
0.0
 12
247.2003819496623
 22
20.77641209139673
 32
0.0
 13
247.2003819496623
 23
20.77641209139673
 33
0.0
  0
MTEXT
  5
12FD
330
1220
100
AcDbEntity
  8
Quote(ISO)
  6
Continuous
 62
     7
370
    25
100
AcDbMText
 10
231.8617053126119
 20
25.11242300544857
 30
0.0
 40
3.5
 41
0.0
 71
     1
 72
     1
  1
\A1;21.5
  7
Corrente-ISO
 73
     1
 44
1.0
1001
ACAD
1000
MTEXTBEGIN
1070
    73
1070
     1
1070
    44
1040
1.0
1070
    74
1070
     0
1000
MTEXTEND
  0
POINT
  5
12FE
330
1220
100
AcDbEntity
  8
Defpoints
  6
Continuous
 62
     0
100
AcDbPoint
 10
225.7003819496687
 20
41.7625495492275
 30
0.0
  0
POINT
  5
12FF
330
1220
100
AcDbEntity
  8
Defpoints
  6
Continuous
 62
     0
100
AcDbPoint
 10
247.2003819496623
 20
66.27216849251275
 30
0.0
  0
POINT
  5
1300
330
1220
100
AcDbEntity
  8
Defpoints
  6
Continuous
 62
     0
100
AcDbPoint
 10
247.2003819496623
 20
20.77641209139673
 30
0.0
  0
ENDBLK
  5
1222
330
1220
100
AcDbEntity
  8
0
100
AcDbBlockEnd
  0
BLOCK
  5
1303
330
1302
100
AcDbEntity
  8
0
100
AcDbBlockBegin
  2
*D28
 70
     1
 10
0.0
 20
0.0
 30
0.0
  3
*D28
  1

  0
LINE
  5
13CE
330
1302
100
AcDbEntity
  8
Quote(ISO)
  6
Continuous
 62
    96
370
    25
100
AcDbLine
 10
50.20038194965981
 20
65.27216849245473
 30
0.0
 11
50.20038194965981
 21
12.70287273851592
 31
0.0
  0
LINE
  5
13CF
330
1302
100
AcDbEntity
  8
Quote(ISO)
  6
Continuous
 62
    96
370
    25
100
AcDbLine
 10
247.2003819496623
 20
65.27216849251274
 30
0.0
 11
247.2003819496623
 21
12.70287273851592
 31
0.0
  0
LINE
  5
13D0
330
1302
100
AcDbEntity
  8
Quote(ISO)
  6
Continuous
 62
    96
370
    25
100
AcDbLine
 10
52.70038194965981
 20
13.70287273851592
 30
0.0
 11
244.7003819496623
 21
13.70287273851592
 31
0.0
  0
SOLID
  5
13D1
330
1302
100
AcDbEntity
  8
Quote(ISO)
  6
Continuous
 62
    96
100
AcDbTrace
 10
52.70038194965981
 20
14.11953940518259
 30
0.0
 11
52.70038194965981
 21
13.28620607184926
 31
0.0
 12
50.20038194965981
 22
13.70287273851592
 32
0.0
 13
50.20038194965981
 23
13.70287273851592
 33
0.0
  0
SOLID
  5
13D2
330
1302
100
AcDbEntity
  8
Quote(ISO)
  6
Continuous
 62
    96
100
AcDbTrace
 10
244.7003819496623
 20
14.11953940518259
 30
0.0
 11
244.7003819496623
 21
13.28620607184926
 31
0.0
 12
247.2003819496623
 22
13.70287273851592
 32
0.0
 13
247.2003819496623
 23
13.70287273851592
 33
0.0
  0
MTEXT
  5
13D3
330
1302
100
AcDbEntity
  8
Quote(ISO)
  6
Continuous
 62
     7
370
    25
100
AcDbMText
 10
144.99864259095
 20
18.03888365256776
 30
0.0
 40
3.5
 41
0.0
 71
     1
 72
     1
  1
\A1;197
  7
Corrente-ISO
 73
     1
 44
1.0
1001
ACAD
1000
MTEXTBEGIN
1070
    73
1070
     1
1070
    44
1040
1.0
1070
    74
1070
     0
1000
MTEXTEND
  0
POINT
  5
13D4
330
1302
100
AcDbEntity
  8
Defpoints
  6
Continuous
 62
     0
100
AcDbPoint
 10
50.20038194965981
 20
66.27216849245472
 30
0.0
  0
POINT
  5
13D5
330
1302
100
AcDbEntity
  8
Defpoints
  6
Continuous
 62
     0
100
AcDbPoint
 10
247.2003819496623
 20
66.27216849251275
 30
0.0
  0
POINT
  5
13D6
330
1302
100
AcDbEntity
  8
Defpoints
  6
Continuous
 62
     0
100
AcDbPoint
 10
247.2003819496623
 20
13.70287273851592
 30
0.0
  0
ENDBLK
  5
1304
330
1302
100
AcDbEntity
  8
0
100
AcDbBlockEnd
  0
BLOCK
  5
13D9
330
13D8
100
AcDbEntity
  8
0
100
AcDbBlockBegin
  2
*D29
 70
     1
 10
0.0
 20
0.0
 30
0.0
  3
*D29
  1

  0
LINE
  5
14FE
330
13D8
100
AcDbEntity
  8
Quote(ISO)
  6
Continuous
 62
    96
370
    25
100
AcDbLine
 10
69.86063598749854
 20
90.32472737572161
 30
0.0
 11
51.60314017774561
 21
58.70181701423345
 31
0.0
  0
LINE
  5
14FF
330
13D8
100
AcDbEntity
  8
Quote(ISO)
  6
Continuous
 62
    96
370
    25
100
AcDbLine
 10
71.70038194965393
 20
91.51126085519544
 30
0.0
 11
71.70038194966526
 21
53.31677731136073
 31
0.0
  0
ARC
  5
1500
330
13D8
100
AcDbEntity
  8
Quote(ISO)
  6
Continuous
 62
    96
370
    25
100
AcDbCircle
 10
71.70038194965333
 20
93.51126085519544
 30
0.0
 40
39.19448354383469
100
AcDbArc
 50
243.6552016709145
 51
266.3447983291184
  0
SOLID
  5
1501
330
13D8
100
AcDbEntity
  8
Quote(ISO)
  6
Continuous
 62
    96
100
AcDbTrace
 10
54.11024841667774
 20
58.02022242967434
 30
0.0
 11
54.50368688646854
 21
58.75483158761692
 31
0.0
 12
52.10314017774537
 22
59.56784241801804
 32
0.0
 13
52.10314017774537
 23
59.56784241801804
 33
0.0
  0
SOLID
  5
1502
330
13D8
100
AcDbEntity
  8
Quote(ISO)
  6
Continuous
 62
    96
100
AcDbTrace
 10
69.21494210173873
 20
54.81296263304165
 30
0.0
 11
69.18836523243282
 21
53.98005320551526
 31
0.0
 12
71.70038194966494
 22
54.31677731136073
 32
0.0
 13
71.70038194966494
 23
54.31677731136073
 33
0.0
  0
MTEXT
  5
1503
102
{ACAD_XDICTIONARY
360
1DCD
102
}
330
13D8
100
AcDbEntity
  8
Quote(ISO)
  6
Continuous
 62
     7
370
    25
100
AcDbMText
 10
59.36394668218258
 20
60.73112399241741
 30
0.0
 40
3.5
 41
0.0
 71
     1
 72
     1
  1
\A1;30\U+00B0
  7
Corrente-ISO
 11
0.9659258262891423
 21
-0.2588190451022442
 31
0.0
 73
     1
 44
1.0
1001
ACAD
1000
MTEXTBEGIN
1070
    73
1070
     1
1070
    44
1040
1.0
1070
    74
1070
     0
1000
MTEXTEND
  0
POINT
  5
1504
330
13D8
100
AcDbEntity
  8
Defpoints
  6
Continuous
 62
     0
100
AcDbPoint
 10
71.70038194965333
 20
93.51126085519544
 30
0.0
  0
POINT
  5
1505
330
13D8
100
AcDbEntity
  8
Defpoints
  6
Continuous
 62
     0
100
AcDbPoint
 10
70.3606359874983
 20
91.19075277950617
 30
0.0
  0
POINT
  5
1506
330
13D8
100
AcDbEntity
  8
Defpoints
  6
Continuous
 62
     0
100
AcDbPoint
 10
71.70038194965363
 20
92.51126085519544
 30
0.0
  0
POINT
  5
1507
330
13D8
100
AcDbEntity
  8
Defpoints
  6
Continuous
 62
     0
100
AcDbPoint
 10
58.29507907042587
 20
56.68049389353547
 30
0.0
  0
ENDBLK
  5
13DA
330
13D8
100
AcDbEntity
  8
0
100
AcDbBlockEnd
  0
BLOCK
  5
150A
330
1509
100
AcDbEntity
  8
0
100
AcDbBlockBegin
  2
*D30
 70
     1
 10
0.0
 20
0.0
 30
0.0
  3
*D30
  1

  0
LINE
  5
15E1
330
1509
100
AcDbEntity
  8
Quote(ISO)
  6
Continuous
 62
    96
370
    25
100
AcDbLine
 10
505.0030646680199
 20
231.9663286751433
 30
0.0
 11
505.0030646680199
 21
196.6646372745943
 31
0.0
  0
LINE
  5
15E2
330
1509
100
AcDbEntity
  8
Quote(ISO)
  6
Continuous
 62
    96
370
    25
100
AcDbLine
 10
539.00306466802
 20
218.1099222145922
 30
0.0
 11
539.00306466802
 21
196.6646372745943
 31
0.0
  0
LINE
  5
15E3
330
1509
100
AcDbEntity
  8
Quote(ISO)
  6
Continuous
 62
    96
370
    25
100
AcDbLine
 10
507.5030646680199
 20
197.6646372745943
 30
0.0
 11
536.50306466802
 21
197.6646372745943
 31
0.0
  0
SOLID
  5
15E4
330
1509
100
AcDbEntity
  8
Quote(ISO)
  6
Continuous
 62
    96
100
AcDbTrace
 10
507.5030646680199
 20
198.081303941261
 30
0.0
 11
507.5030646680199
 21
197.2479706079277
 31
0.0
 12
505.0030646680199
 22
197.6646372745943
 32
0.0
 13
505.0030646680199
 23
197.6646372745943
 33
0.0
  0
SOLID
  5
15E5
330
1509
100
AcDbEntity
  8
Quote(ISO)
  6
Continuous
 62
    96
100
AcDbTrace
 10
536.50306466802
 20
198.081303941261
 30
0.0
 11
536.50306466802
 21
197.2479706079277
 31
0.0
 12
539.00306466802
 22
197.6646372745943
 32
0.0
 13
539.00306466802
 23
197.6646372745943
 33
0.0
  0
MTEXT
  5
15E6
330
1509
100
AcDbEntity
  8
Quote(ISO)
  6
Continuous
 62
     7
370
    25
100
AcDbMText
 10
519.5045995157108
 20
202.0030356374866
 30
0.0
 40
3.5
 41
0.0
 71
     1
 72
     1
  1
\A1;34
  7
Corrente-ISO
 73
     1
 44
1.0
1001
ACAD
1000
MTEXTBEGIN
1070
    73
1070
     1
1070
    44
1040
1.0
1070
    74
1070
     0
1000
MTEXTEND
  0
POINT
  5
15E7
330
1509
100
AcDbEntity
  8
Defpoints
  6
Continuous
 62
     0
100
AcDbPoint
 10
505.0030646680199
 20
232.9663286751432
 30
0.0
  0
POINT
  5
15E8
330
1509
100
AcDbEntity
  8
Defpoints
  6
Continuous
 62
     0
100
AcDbPoint
 10
539.00306466802
 20
219.1099222145922
 30
0.0
  0
POINT
  5
15E9
330
1509
100
AcDbEntity
  8
Defpoints
  6
Continuous
 62
     0
100
AcDbPoint
 10
539.00306466802
 20
197.6646372745943
 30
0.0
  0
ENDBLK
  5
150B
330
1509
100
AcDbEntity
  8
0
100
AcDbBlockEnd
  0
BLOCK
  5
15EE
330
15ED
100
AcDbEntity
  8
0
100
AcDbBlockBegin
  2
*D31
 70
     1
 10
0.0
 20
0.0
 30
0.0
  3
*D31
  1

  0
LINE
  5
16B9
330
15ED
100
AcDbEntity
  8
Quote(ISO)
  6
Continuous
 62
    96
370
    25
100
AcDbLine
 10
505.0030646680199
 20
231.9663286751433
 30
0.0
 11
505.0030646680199
 21
196.8838281184039
 31
0.0
  0
LINE
  5
16BA
330
15ED
100
AcDbEntity
  8
Quote(ISO)
  6
Continuous
 62
    96
370
    25
100
AcDbLine
 10
385.0030646680199
 20
226.9663286751432
 30
0.0
 11
385.0030646680199
 21
196.8838281184039
 31
0.0
  0
LINE
  5
16BB
330
15ED
100
AcDbEntity
  8
Quote(ISO)
  6
Continuous
 62
    96
370
    25
100
AcDbLine
 10
502.5030646680199
 20
197.8838281184039
 30
0.0
 11
387.5030646680199
 21
197.8838281184039
 31
0.0
  0
SOLID
  5
16BC
330
15ED
100
AcDbEntity
  8
Quote(ISO)
  6
Continuous
 62
    96
100
AcDbTrace
 10
502.5030646680199
 20
198.3004947850705
 30
0.0
 11
502.5030646680199
 21
197.4671614517372
 31
0.0
 12
505.0030646680199
 22
197.8838281184039
 32
0.0
 13
505.0030646680199
 23
197.8838281184039
 33
0.0
  0
SOLID
  5
16BD
330
15ED
100
AcDbEntity
  8
Quote(ISO)
  6
Continuous
 62
    96
100
AcDbTrace
 10
387.5030646680199
 20
198.3004947850705
 30
0.0
 11
387.5030646680199
 21
197.4671614517372
 31
0.0
 12
385.0030646680199
 22
197.8838281184039
 32
0.0
 13
385.0030646680199
 23
197.8838281184039
 33
0.0
  0
MTEXT
  5
16BE
330
15ED
100
AcDbEntity
  8
Quote(ISO)
  6
Continuous
 62
     7
370
    25
100
AcDbMText
 10
441.3072938631086
 20
202.2198390324557
 30
0.0
 40
3.5
 41
0.0
 71
     1
 72
     1
  1
\A1;120
  7
Corrente-ISO
 73
     1
 44
1.0
1001
ACAD
1000
MTEXTBEGIN
1070
    73
1070
     1
1070
    44
1040
1.0
1070
    74
1070
     0
1000
MTEXTEND
  0
POINT
  5
16BF
330
15ED
100
AcDbEntity
  8
Defpoints
  6
Continuous
 62
     0
100
AcDbPoint
 10
505.0030646680199
 20
232.9663286751432
 30
0.0
  0
POINT
  5
16C0
330
15ED
100
AcDbEntity
  8
Defpoints
  6
Continuous
 62
     0
100
AcDbPoint
 10
385.0030646680199
 20
227.9663286751433
 30
0.0
  0
POINT
  5
16C1
330
15ED
100
AcDbEntity
  8
Defpoints
  6
Continuous
 62
     0
100
AcDbPoint
 10
385.0030646680199
 20
197.8838281184039
 30
0.0
  0
ENDBLK
  5
15EF
330
15ED
100
AcDbEntity
  8
0
100
AcDbBlockEnd
  0
BLOCK
  5
16C6
330
16C5
100
AcDbEntity
  8
0
100
AcDbBlockBegin
  2
*D32
 70
     1
 10
0.0
 20
0.0
 30
0.0
  3
*D32
  1

  0
LINE
  5
1791
330
16C5
100
AcDbEntity
  8
Quote(ISO)
  6
Continuous
 62
    96
370
    25
100
AcDbLine
 10
385.0030646680199
 20
226.9663286751432
 30
0.0
 11
385.0030646680199
 21
187.0889788262078
 31
0.0
  0
LINE
  5
1792
330
16C5
100
AcDbEntity
  8
Quote(ISO)
  6
Continuous
 62
    96
370
    25
100
AcDbLine
 10
539.00306466802
 20
218.1099222145923
 30
0.0
 11
539.00306466802
 21
187.0889788262078
 31
0.0
  0
LINE
  5
1793
330
16C5
100
AcDbEntity
  8
Quote(ISO)
  6
Continuous
 62
    96
370
    25
100
AcDbLine
 10
387.5030646680199
 20
188.0889788262078
 30
0.0
 11
536.50306466802
 21
188.0889788262078
 31
0.0
  0
SOLID
  5
1794
330
16C5
100
AcDbEntity
  8
Quote(ISO)
  6
Continuous
 62
    96
100
AcDbTrace
 10
387.5030646680199
 20
188.5056454928744
 30
0.0
 11
387.5030646680199
 21
187.6723121595411
 31
0.0
 12
385.0030646680199
 22
188.0889788262078
 32
0.0
 13
385.0030646680199
 23
188.0889788262078
 33
0.0
  0
SOLID
  5
1795
330
16C5
100
AcDbEntity
  8
Quote(ISO)
  6
Continuous
 62
    96
100
AcDbTrace
 10
536.50306466802
 20
188.5056454928744
 30
0.0
 11
536.50306466802
 21
187.6723121595411
 31
0.0
 12
539.00306466802
 22
188.0889788262078
 32
0.0
 13
539.00306466802
 23
188.0889788262078
 33
0.0
  0
MTEXT
  5
1796
330
16C5
100
AcDbEntity
  8
Quote(ISO)
  6
Continuous
 62
     7
370
    25
100
AcDbMText
 10
458.3084875875289
 20
192.4249897402596
 30
0.0
 40
3.5
 41
0.0
 71
     1
 72
     1
  1
\A1;154
  7
Corrente-ISO
 73
     1
 44
1.0
1001
ACAD
1000
MTEXTBEGIN
1070
    73
1070
     1
1070
    44
1040
1.0
1070
    74
1070
     0
1000
MTEXTEND
  0
POINT
  5
1797
330
16C5
100
AcDbEntity
  8
Defpoints
  6
Continuous
 62
     0
100
AcDbPoint
 10
385.0030646680199
 20
227.9663286751433
 30
0.0
  0
POINT
  5
1798
330
16C5
100
AcDbEntity
  8
Defpoints
  6
Continuous
 62
     0
100
AcDbPoint
 10
539.00306466802
 20
219.1099222145922
 30
0.0
  0
POINT
  5
1799
330
16C5
100
AcDbEntity
  8
Defpoints
  6
Continuous
 62
     0
100
AcDbPoint
 10
539.00306466802
 20
188.0889788262078
 30
0.0
  0
ENDBLK
  5
16C7
330
16C5
100
AcDbEntity
  8
0
100
AcDbBlockEnd
  0
BLOCK
  5
179C
330
179B
100
AcDbEntity
  8
0
100
AcDbBlockBegin
  2
*D33
 70
     1
 10
0.0
 20
0.0
 30
0.0
  3
*D33
  1

  0
LINE
  5
18C0
330
179B
100
AcDbEntity
  8
Quote(ISO)
  6
Continuous
 62
    96
370
    25
100
AcDbLine
 10
509.065242494511
 20
236.3945319054188
 30
0.0
 11
534.023053089433
 21
221.9851332400569
 31
0.0
  0
LINE
  5
18C1
330
179B
100
AcDbEntity
  8
Quote(ISO)
  6
Continuous
 62
    96
370
    25
100
AcDbLine
 10
508.3428106301755
 20
237.9663286751433
 30
0.0
 11
538.3052015003482
 21
237.9663286751441
 31
0.0
  0
ARC
  5
18C2
330
179B
100
AcDbEntity
  8
Quote(ISO)
  6
Continuous
 62
    96
370
    25
100
AcDbCircle
 10
506.3428106301755
 20
237.9663286751433
 30
0.0
 40
30.96239087017267
100
AcDbArc
 50
334.6274975358849
 51
355.3725024641167
  0
SOLID
  5
18C3
330
179B
100
AcDbEntity
  8
Quote(ISO)
  6
Continuous
 62
    96
100
AcDbTrace
 10
534.6875620928751
 20
224.5053004458611
 30
0.0
 11
533.9496411392508
 21
224.8924917559992
 31
0.0
 12
533.1570276856484
 22
222.485133240057
 32
0.0
 13
533.1570276856484
 23
222.485133240057
 33
0.0
  0
SOLID
  5
18C4
330
179B
100
AcDbEntity
  8
Quote(ISO)
  6
Continuous
 62
    96
100
AcDbTrace
 10
536.7879456285781
 20
235.48518831752
 30
0.0
 11
537.6205995754708
 21
235.4515453514121
 31
0.0
 12
537.3052015003483
 22
237.9663286751441
 32
0.0
 13
537.3052015003483
 23
237.9663286751441
 33
0.0
  0
MTEXT
  5
18C5
102
{ACAD_XDICTIONARY
360
1DCF
102
}
330
179B
100
AcDbEntity
  8
Quote(ISO)
  6
Continuous
 62
     7
370
    25
100
AcDbMText
 10
531.1713565750549
 20
227.7605157726558
 30
0.0
 40
3.5
 41
0.0
 71
     1
 72
     1
  1
\A1;30\U+00B0
  7
Corrente-ISO
 11
0.2588190451025231
 21
0.9659258262890675
 31
0.0
 73
     1
 44
1.0
1001
ACAD
1000
MTEXTBEGIN
1070
    73
1070
     1
1070
    44
1040
1.0
1070
    74
1070
     0
1000
MTEXTEND
  0
POINT
  5
18C6
330
179B
100
AcDbEntity
  8
Defpoints
  6
Continuous
 62
     0
100
AcDbPoint
 10
506.3428106301755
 20
237.9663286751433
 30
0.0
  0
POINT
  5
18C7
330
179B
100
AcDbEntity
  8
Defpoints
  6
Continuous
 62
     0
100
AcDbPoint
 10
508.1992170907266
 20
236.8945319054188
 30
0.0
  0
POINT
  5
18C8
330
179B
100
AcDbEntity
  8
Defpoints
  6
Continuous
 62
     0
100
AcDbPoint
 10
507.3428106301755
 20
237.9663286751433
 30
0.0
  0
POINT
  5
18C9
330
179B
100
AcDbEntity
  8
Defpoints
  6
Continuous
 62
     0
100
AcDbPoint
 10
535.4379408527659
 20
227.3765673120217
 30
0.0
  0
ENDBLK
  5
179D
330
179B
100
AcDbEntity
  8
0
100
AcDbBlockEnd
  0
BLOCK
  5
18CD
330
18CC
100
AcDbEntity
  8
0
100
AcDbBlockBegin
  2
*D34
 70
     1
 10
0.0
 20
0.0
 30
0.0
  3
*D34
  1

  0
LINE
  5
19AA
330
18CC
100
AcDbEntity
  8
Quote(ISO)
  6
Continuous
 62
    96
370
    25
100
AcDbLine
 10
505.1992170907266
 20
237.9663286751433
 30
0.0
 11
557.5030647863213
 21
237.9663286751433
 31
0.0
  0
LINE
  5
19AB
330
18CC
100
AcDbEntity
  8
Quote(ISO)
  6
Continuous
 62
    96
370
    25
100
AcDbLine
 10
537.50306466802
 20
214.77979519567
 30
0.0
 11
557.5030647863213
 21
214.77979519567
 31
0.0
  0
LINE
  5
19AC
330
18CC
100
AcDbEntity
  8
Quote(ISO)
  6
Continuous
 62
    96
370
    25
100
AcDbLine
 10
556.5030647863213
 20
235.4663286751432
 30
0.0
 11
556.5030647863213
 21
217.27979519567
 31
0.0
  0
SOLID
  5
19AD
330
18CC
100
AcDbEntity
  8
Quote(ISO)
  6
Continuous
 62
    96
100
AcDbTrace
 10
556.0863981196547
 20
235.4663286751432
 30
0.0
 11
556.919731452988
 21
235.4663286751432
 31
0.0
 12
556.5030647863213
 22
237.9663286751433
 32
0.0
 13
556.5030647863213
 23
237.9663286751433
 33
0.0
  0
SOLID
  5
19AE
330
18CC
100
AcDbEntity
  8
Quote(ISO)
  6
Continuous
 62
    96
100
AcDbTrace
 10
556.0863981196547
 20
217.27979519567
 30
0.0
 11
556.919731452988
 21
217.27979519567
 31
0.0
 12
556.5030647863213
 22
214.77979519567
 32
0.0
 13
556.5030647863213
 23
214.77979519567
 33
0.0
  0
MTEXT
  5
19AF
330
18CC
100
AcDbEntity
  8
Quote(ISO)
  6
Continuous
 62
     7
370
    25
100
AcDbMText
 10
552.1646664234291
 20
223.8363975083501
 30
0.0
 40
3.5
 41
0.0
 71
     1
 72
     1
  1
\A1;23
  7
Corrente-ISO
 11
0.0000000000000001
 21
1.0
 31
0.0
 73
     1
 44
1.0
1001
ACAD
1000
MTEXTBEGIN
1070
    73
1070
     1
1070
    44
1040
1.0
1070
    74
1070
     0
1000
MTEXTEND
  0
POINT
  5
19B0
330
18CC
100
AcDbEntity
  8
Defpoints
  6
Continuous
 62
     0
100
AcDbPoint
 10
504.1992170907266
 20
237.9663286751433
 30
0.0
  0
POINT
  5
19B1
330
18CC
100
AcDbEntity
  8
Defpoints
  6
Continuous
 62
     0
100
AcDbPoint
 10
536.50306466802
 20
214.77979519567
 30
0.0
  0
POINT
  5
19B2
330
18CC
100
AcDbEntity
  8
Defpoints
  6
Continuous
 62
     0
100
AcDbPoint
 10
556.5030647863213
 20
214.77979519567
 30
0.0
  0
ENDBLK
  5
18CE
330
18CC
100
AcDbEntity
  8
0
100
AcDbBlockEnd
  0
BLOCK
  5
19B5
330
19B4
100
AcDbEntity
  8
0
100
AcDbBlockBegin
  2
*D35
 70
     1
 10
0.0
 20
0.0
 30
0.0
  3
*D35
  1

  0
LINE
  5
1AB8
330
19B4
100
AcDbEntity
  8
Quote(ISO)
  6
Continuous
 62
    96
370
    25
100
AcDbLine
 10
384.0030646680199
 20
232.9663286751432
 30
0.0
 11
369.00306456802
 21
232.9663286751432
 31
0.0
  0
LINE
  5
1AB9
330
19B4
100
AcDbEntity
  8
Quote(ISO)
  6
Continuous
 62
    96
370
    25
100
AcDbLine
 10
379.0030646680199
 20
227.9663286751433
 30
0.0
 11
369.00306456802
 21
227.9663286751433
 31
0.0
  0
LINE
  5
1ABA
330
19B4
100
AcDbEntity
  8
Quote(ISO)
  6
Continuous
 62
    96
370
    25
100
AcDbLine
 10
370.00306456802
 20
225.4663286751433
 30
0.0
 11
370.00306456802
 21
222.9663286751432
 31
0.0
  0
LINE
  5
1ABB
330
19B4
100
AcDbEntity
  8
Quote(ISO)
  6
Continuous
 62
    96
370
    25
100
AcDbLine
 10
370.00306456802
 20
235.4663286751432
 30
0.0
 11
370.00306456802
 21
295.5206324268093
 31
0.0
  0
LINE
  5
1ABC
330
19B4
100
AcDbEntity
  8
Quote(ISO)
  6
Continuous
 62
    96
370
    25
100
AcDbLine
 10
370.00306456802
 20
227.9663286751433
 30
0.0
 11
370.00306456802
 21
232.9663286751432
 31
0.0
  0
SOLID
  5
1ABD
330
19B4
100
AcDbEntity
  8
Quote(ISO)
  6
Continuous
 62
    96
100
AcDbTrace
 10
369.5863979013533
 20
225.4663286751433
 30
0.0
 11
370.4197312346867
 21
225.4663286751433
 31
0.0
 12
370.00306456802
 22
227.9663286751433
 32
0.0
 13
370.00306456802
 23
227.9663286751433
 33
0.0
  0
SOLID
  5
1ABE
330
19B4
100
AcDbEntity
  8
Quote(ISO)
  6
Continuous
 62
    96
100
AcDbTrace
 10
369.5863979013533
 20
235.4663286751432
 30
0.0
 11
370.4197312346867
 21
235.4663286751432
 31
0.0
 12
370.00306456802
 22
232.9663286751432
 32
0.0
 13
370.00306456802
 23
232.9663286751432
 33
0.0
  0
MTEXT
  5
1ABF
330
19B4
100
AcDbEntity
  8
Quote(ISO)
  6
Continuous
 62
     7
370
    25
100
AcDbMText
 10
365.6216921260008
 20
238.9567906805611
 30
0.0
 40
3.5
 41
0.0
 71
     1
 72
     1
  1
\A1;{SALDATURA }5{\fArial|b0|i0;\H3.5000; X 5 X 140}
  7
Corrente-ISO
 11
0.0000000000000001
 21
1.0
 31
0.0
 73
     1
 44
1.0
1001
ACAD
1000
MTEXTBEGIN
1070
    73
1070
     1
1070
    44
1040
1.0
1070
    74
1070
     0
1000
MTEXTEND
  0
POINT
  5
1AC0
330
19B4
100
AcDbEntity
  8
Defpoints
  6
Continuous
 62
     0
100
AcDbPoint
 10
385.0030646680199
 20
232.9663286751432
 30
0.0
  0
POINT
  5
1AC1
330
19B4
100
AcDbEntity
  8
Defpoints
  6
Continuous
 62
     0
100
AcDbPoint
 10
380.0030646680199
 20
227.9663286751433
 30
0.0
  0
POINT
  5
1AC2
330
19B4
100
AcDbEntity
  8
Defpoints
  6
Continuous
 62
     0
100
AcDbPoint
 10
370.00306456802
 20
227.9663286751433
 30
0.0
  0
ENDBLK
  5
19B6
330
19B4
100
AcDbEntity
  8
0
100
AcDbBlockEnd
  0
BLOCK
  5
1AC5
330
1AC4
100
AcDbEntity
  8
0
100
AcDbBlockBegin
  2
*D36
 70
     1
 10
0.0
 20
0.0
 30
0.0
  3
*D36
  1

  0
LINE
  5
1B90
330
1AC4
100
AcDbEntity
  8
Quote(ISO)
  6
Continuous
 62
    96
370
    25
100
AcDbLine
 10
379.0030646680199
 20
392.9663286751432
 30
0.0
 11
351.1962118869454
 21
392.9663286751432
 31
0.0
  0
LINE
  5
1B91
330
1AC4
100
AcDbEntity
  8
Quote(ISO)
  6
Continuous
 62
    96
370
    25
100
AcDbLine
 10
379.0030646680199
 20
227.9663286751433
 30
0.0
 11
351.1962118869454
 21
227.9663286751433
 31
0.0
  0
LINE
  5
1B92
330
1AC4
100
AcDbEntity
  8
Quote(ISO)
  6
Continuous
 62
    96
370
    25
100
AcDbLine
 10
352.1962118869454
 20
390.4663286751432
 30
0.0
 11
352.1962118869454
 21
230.4663286751432
 31
0.0
  0
SOLID
  5
1B93
330
1AC4
100
AcDbEntity
  8
Quote(ISO)
  6
Continuous
 62
    96
100
AcDbTrace
 10
351.7795452202788
 20
390.4663286751432
 30
0.0
 11
352.6128785536121
 21
390.4663286751432
 31
0.0
 12
352.1962118869454
 22
392.9663286751432
 32
0.0
 13
352.1962118869454
 23
392.9663286751432
 33
0.0
  0
SOLID
  5
1B94
330
1AC4
100
AcDbEntity
  8
Quote(ISO)
  6
Continuous
 62
    96
100
AcDbTrace
 10
351.7795452202787
 20
230.4663286751432
 30
0.0
 11
352.612878553612
 21
230.4663286751432
 31
0.0
 12
352.1962118869454
 22
227.9663286751433
 32
0.0
 13
352.1962118869454
 23
227.9663286751433
 33
0.0
  0
MTEXT
  5
1B95
330
1AC4
100
AcDbEntity
  8
Quote(ISO)
  6
Continuous
 62
     7
370
    25
100
AcDbMText
 10
347.8602009728934
 20
306.7514582795089
 30
0.0
 40
3.5
 41
0.0
 71
     1
 72
     1
  1
\A1;165
  7
Corrente-ISO
 11
0.0000000000000001
 21
1.0
 31
0.0
 73
     1
 44
1.0
1001
ACAD
1000
MTEXTBEGIN
1070
    73
1070
     1
1070
    44
1040
1.0
1070
    74
1070
     0
1000
MTEXTEND
  0
POINT
  5
1B96
330
1AC4
100
AcDbEntity
  8
Defpoints
  6
Continuous
 62
     0
100
AcDbPoint
 10
380.0030646680199
 20
392.9663286751432
 30
0.0
  0
POINT
  5
1B97
330
1AC4
100
AcDbEntity
  8
Defpoints
  6
Continuous
 62
     0
100
AcDbPoint
 10
380.0030646680199
 20
227.9663286751433
 30
0.0
  0
POINT
  5
1B98
330
1AC4
100
AcDbEntity
  8
Defpoints
  6
Continuous
 62
     0
100
AcDbPoint
 10
352.1962118869454
 20
227.9663286751433
 30
0.0
  0
ENDBLK
  5
1AC6
330
1AC4
100
AcDbEntity
  8
0
100
AcDbBlockEnd
  0
ENDSEC
  0
SECTION
  2
ENTITIES
  0
LINE
  5
3AF
330
77
100
AcDbEntity
  8
Spigoli visibili(ISO)
100
AcDbLine
 10
536.50306466802
 20
214.77979519567
 30
0.0
 11
523.5126836112534
 21
222.27979519567
 31
0.0
  0
LINE
  5
3B0
330
77
100
AcDbEntity
  8
Spigoli visibili(ISO)
100
AcDbLine
 10
536.50306466802
 20
214.77979519567
 30
0.0
 11
539.00306466802
 21
219.1099222145922
 31
0.0
  0
LINE
  5
3B1
330
77
100
AcDbEntity
  8
Spigoli visibili(ISO)
100
AcDbLine
 10
526.0126836112533
 20
226.6099222145923
 30
0.0
 11
539.00306466802
 21
219.1099222145922
 31
0.0
  0
LINE
  5
3B2
330
77
100
AcDbEntity
  8
Spigoli visibili(ISO)
100
AcDbLine
 10
508.1992170907266
 20
236.8945319054188
 30
0.0
 11
526.0126836112533
 21
226.6099222145923
 31
0.0
  0
LINE
  5
3B3
330
77
100
AcDbEntity
  8
Spigoli visibili(ISO)
100
AcDbLine
 10
503.2601323251689
 20
237.9663286751433
 30
0.0
 11
504.1992170907264
 21
237.9663286751433
 31
0.0
  0
LINE
  5
3B4
330
77
100
AcDbEntity
  8
Spigoli visibili(ISO)
100
AcDbLine
 10
503.9312678982954
 20
232.9663286751432
 30
0.0
 11
500.6951419767716
 21
232.9663286751432
 31
0.0
  0
LINE
  5
3B5
330
77
100
AcDbEntity
  8
Spigoli visibili(ISO)
100
AcDbLine
 10
523.5126836112534
 20
222.27979519567
 30
0.0
 11
505.9312678982954
 21
232.430430290281
 31
0.0
  0
LINE
  5
3B6
330
77
100
AcDbEntity
  8
Spigoli nascosti(ISO)
 48
25.61874008178711
100
AcDbLine
 10
392.0030646680199
 20
237.9663286751433
 30
0.0
 11
503.2601323251689
 21
237.9663286751433
 31
0.0
  0
LINE
  5
3B7
330
77
100
AcDbEntity
  8
Spigoli nascosti(ISO)
 48
25.02811050415039
100
AcDbLine
 10
500.6951419767716
 20
232.9663286751432
 30
0.0
 11
392.0030646680199
 21
232.9663286751432
 31
0.0
  0
ARC
  5
3B8
330
77
100
AcDbEntity
  8
Spigoli visibili(ISO)
100
AcDbCircle
 10
504.1992170907266
 20
229.9663286751434
 30
0.0
 40
7.999999999999857
100
AcDbArc
 50
59.9999999999997
 51
90.00000000000047
  0
LINE
  5
3B9
330
77
100
AcDbEntity
  8
Spigoli nascosti(ISO)
 48
9.518777847290039
100
AcDbLine
 10
392.00306466802
 20
232.9663286751432
 30
0.0
 11
392.0030646680199
 21
237.9663286751433
 31
0.0
  0
LINE
  5
3BA
330
77
100
AcDbEntity
  8
Spigoli nascosti(ISO)
 48
23.93494987487793
100
AcDbLine
 10
385.0030646680199
 20
232.9663286751432
 30
0.0
 11
392.00306466802
 21
232.9663286751432
 31
0.0
  0
LINE
  5
3BB
330
77
100
AcDbEntity
  8
Spigoli nascosti(ISO)
 48
23.93494987487793
100
AcDbLine
 10
392.0030646680199
 20
237.9663286751433
 30
0.0
 11
385.0030646680199
 21
237.9663286751433
 31
0.0
  0
ARC
  5
3BC
330
77
100
AcDbEntity
  8
Spigoli visibili(ISO)
100
AcDbCircle
 10
503.9312678982954
 20
228.9663286751434
 30
0.0
 40
3.9999999999999
100
AcDbArc
 50
59.99999999999988
 51
90.0
  0
ELLIPSE
  5
3BD
330
77
100
AcDbEntity
  8
Spigoli visibili(ISO)
100
AcDbEllipse
 10
491.0126836112532
 20
242.9663286751432
 30
0.0
 11
0.0000000000000178
 21
-14.99999999999997
 31
0.0
210
0.0
220
0.0
230
0.9999999999999998
 40
0.866025403784431
 41
0.0000000000000023
 42
1.570796326794897
  0
ELLIPSE
  5
3BE
330
77
100
AcDbEntity
  8
Spigoli visibili(ISO)
100
AcDbEllipse
 10
488.512683611253
 20
242.9663286751432
 30
0.0
 11
0.0000000000000516
 21
-14.99999999999999
 31
0.0
210
0.0
220
0.0
230
1.0
 40
0.8660254037844309
 41
0.0
 42
1.570796326794893
  0
LINE
  5
3BF
330
77
100
AcDbEntity
  8
Spigoli visibili(ISO)
100
AcDbLine
 10
488.5126836112531
 20
227.9663286751433
 30
0.0
 11
491.0126836112532
 21
227.9663286751433
 31
0.0
  0
ELLIPSE
  5
3C0
330
77
100
AcDbEntity
  8
Spigoli visibili(ISO)
100
AcDbEllipse
 10
491.0126836112532
 20
377.9663286751433
 30
0.0
 11
0.0000000000000529
 21
14.99999999999998
 31
0.0
210
0.0
220
0.0
230
1.0
 40
0.866025403784431
 41
4.712388980384697
 42
6.283185307179588
  0
LINE
  5
3C1
330
77
100
AcDbEntity
  8
Spigoli visibili(ISO)
100
AcDbLine
 10
491.0126836112532
 20
392.9663286751432
 30
0.0
 11
488.5126836112531
 21
392.9663286751432
 31
0.0
  0
ELLIPSE
  5
3C2
330
77
100
AcDbEntity
  8
Spigoli visibili(ISO)
100
AcDbEllipse
 10
488.512683611253
 20
377.9663286751433
 30
0.0
 11
0.0000000000000355
 21
14.99999999999997
 31
0.0
210
0.0
220
0.0
230
0.9999999999999998
 40
0.8660254037844305
 41
4.712388980384691
 42
6.283185307179586
  0
LINE
  5
3C3
330
77
100
AcDbEntity
  8
Spigoli visibili(ISO)
100
AcDbLine
 10
504.0030646680196
 20
242.9663286751432
 30
0.0
 11
504.0030646680196
 21
377.9663286751433
 31
0.0
  0
LINE
  5
3C4
330
77
100
AcDbEntity
  8
Spigoli visibili(ISO)
100
AcDbLine
 10
474.0844803809778
 20
227.9663286751433
 30
0.0
 11
488.5126836112531
 21
227.9663286751433
 31
0.0
  0
LINE
  5
3C5
330
77
100
AcDbEntity
  8
Spigoli visibili(ISO)
100
AcDbLine
 10
390.0030646680199
 20
227.9663286751433
 30
0.0
 11
471.5844803809777
 21
227.9663286751433
 31
0.0
  0
LINE
  5
3C6
330
77
100
AcDbEntity
  8
Spigoli visibili(ISO)
100
AcDbLine
 10
471.5844803809777
 20
392.9663286751432
 30
0.0
 11
390.0030646680199
 21
392.9663286751432
 31
0.0
  0
LINE
  5
3C7
330
77
100
AcDbEntity
  8
Spigoli visibili(ISO)
100
AcDbLine
 10
488.5126836112531
 20
392.9663286751432
 30
0.0
 11
474.0844803809778
 21
392.9663286751432
 31
0.0
  0
LINE
  5
3C8
330
77
100
AcDbEntity
  8
Spigoli visibili(ISO)
100
AcDbLine
 10
501.5030646680195
 20
242.9663286751432
 30
0.0
 11
501.5030646680195
 21
377.9663286751433
 31
0.0
  0
LINE
  5
3C9
330
77
100
AcDbEntity
  8
Spigoli visibili(ISO)
100
AcDbLine
 10
471.5844803809777
 20
227.9663286751433
 30
0.0
 11
474.0844803809777
 21
227.9663286751433
 31
0.0
  0
LINE
  5
3CA
330
77
100
AcDbEntity
  8
Spigoli visibili(ISO)
100
AcDbLine
 10
474.0844803809778
 20
392.9663286751432
 30
0.0
 11
471.5844803809778
 21
392.9663286751432
 31
0.0
  0
LINE
  5
3CB
330
77
100
AcDbEntity
  8
Spigoli nascosti(ISO)
 48
25.73781776428223
100
AcDbLine
 10
385.0030646680199
 20
227.9663286751433
 30
0.0
 11
385.0030646680199
 21
392.9663286751432
 31
0.0
  0
LINE
  5
3CC
330
77
100
AcDbEntity
  8
Spigoli visibili(ISO)
100
AcDbLine
 10
390.0030646680199
 20
227.9663286751433
 30
0.0
 11
380.0030646680199
 21
227.9663286751433
 31
0.0
  0
LINE
  5
3CD
330
77
100
AcDbEntity
  8
Spigoli visibili(ISO)
100
AcDbLine
 10
380.0030646680199
 20
392.9663286751432
 30
0.0
 11
390.0030646680199
 21
392.9663286751432
 31
0.0
  0
LINE
  5
3CE
330
77
100
AcDbEntity
  8
Spigoli visibili(ISO)
100
AcDbLine
 10
380.0030646680199
 20
392.9663286751432
 30
0.0
 11
380.0030646680199
 21
227.9663286751433
 31
0.0
  0
LINE
  5
3CF
330
77
100
AcDbEntity
  8
Spigoli nascosti(ISO)
 48
9.518777847290039
100
AcDbLine
 10
385.0030646680199
 20
327.9663286751433
 30
0.0
 11
380.0030646680199
 21
327.9663286751433
 31
0.0
  0
LINE
  5
3D0
330
77
100
AcDbEntity
  8
Spigoli nascosti(ISO)
 48
9.518777847290039
100
AcDbLine
 10
385.0030646680199
 20
292.9663286751432
 30
0.0
 11
380.0030646680199
 21
292.9663286751432
 31
0.0
  0
LINE
  5
3D1
330
77
100
AcDbEntity
  8
Spigoli nascosti(ISO)
 48
13.32632923126221
100
AcDbLine
 10
389.9528121363258
 20
232.9663286751432
 30
0.0
 11
385.0030646680199
 21
228.0165812068374
 31
0.0
  0
LINE
  5
3D2
330
77
100
AcDbEntity
  8
Spigoli nascosti(ISO)
 48
25.65487289428711
100
AcDbLine
 10
392.00306466802
 20
232.9663286751432
 30
0.0
 11
471.5844803809777
 21
232.9663286751432
 31
0.0
  0
LINE
  5
3D3
330
77
100
AcDbEntity
  8
Spigoli nascosti(ISO)
 48
25.65487289428711
100
AcDbLine
 10
392.00306466802
 20
228.0165812068374
 30
0.0
 11
471.5844803809777
 21
228.0165812068374
 31
0.0
  0
LINE
  5
3D4
330
77
100
AcDbEntity
  8
Spigoli nascosti(ISO)
 48
9.423108100891113
100
AcDbLine
 10
471.5844803809777
 20
228.0165812068374
 30
0.0
 11
471.5844803809777
 21
232.9663286751432
 31
0.0
  0
LINE
  5
3D5
330
77
100
AcDbEntity
  8
Spigoli nascosti(ISO)
 48
9.423108100891113
100
AcDbLine
 10
392.00306466802
 20
232.9663286751432
 30
0.0
 11
392.00306466802
 21
228.0165812068374
 31
0.0
  0
ELLIPSE
  5
3D6
330
77
100
AcDbEntity
  8
Spigoli visibili(ISO)
100
AcDbEllipse
 10
86.70038194978163
 20
222.27979519567
 30
0.0
 11
-15.0
 21
0.0000000000000133
 31
0.0
210
0.0
220
0.0
230
1.0
 40
0.4999999999999993
 41
0.0
 42
1.570796326794131
  0
ELLIPSE
  5
3D7
330
77
100
AcDbEntity
  8
Spigoli visibili(ISO)
100
AcDbEllipse
 10
86.70038194978234
 20
226.6099222145922
 30
0.0
 11
-14.99999999999998
 21
-0.0000000000000058
 31
0.0
210
0.0
220
0.0
230
1.0
 40
0.4999999999999999
 41
0.0
 42
1.570796326795411
  0
LINE
  5
3D8
330
77
100
AcDbEntity
  8
Spigoli visibili(ISO)
100
AcDbLine
 10
71.70038194978236
 20
226.6099222145923
 30
0.0
 11
71.70038194978163
 21
222.27979519567
 31
0.0
  0
ELLIPSE
  5
3D9
330
77
100
AcDbEntity
  8
Spigoli visibili(ISO)
100
AcDbEllipse
 10
210.7003819497824
 20
226.6099222145923
 30
0.0
 11
15.00000000000001
 21
-0.0000000000000111
 31
0.0
210
0.0
220
0.0
230
1.0
 40
0.5000000000000006
 41
4.71238898038392
 42
6.283185307177531
  0
ELLIPSE
  5
3DA
330
77
100
AcDbEntity
  8
Spigoli visibili(ISO)
100
AcDbEllipse
 10
210.7003819497816
 20
222.2797951956701
 30
0.0
 11
15.00000000000001
 21
-0.0000000000000056
 31
0.0
210
0.0
220
0.0
230
1.0
 40
0.5000000000000006
 41
4.712388980385206
 42
6.283185307178811
  0
LINE
  5
3DB
330
77
100
AcDbEntity
  8
Spigoli visibili(ISO)
100
AcDbLine
 10
225.7003819497816
 20
222.27979519567
 30
0.0
 11
225.7003819497824
 21
226.6099222145923
 31
0.0
  0
LINE
  5
3DC
330
77
100
AcDbEntity
  8
Spigoli visibili(ISO)
100
AcDbLine
 10
71.70038194977708
 20
236.8945319054188
 30
0.0
 11
71.70038194978236
 21
226.6099222145923
 31
0.0
  0
LINE
  5
3DD
330
77
100
AcDbEntity
  8
Spigoli visibili(ISO)
100
AcDbLine
 10
210.7003819497862
 20
219.1099222145922
 30
0.0
 11
86.70038194978621
 21
219.1099222145922
 31
0.0
  0
LINE
  5
3DE
330
77
100
AcDbEntity
  8
Spigoli visibili(ISO)
100
AcDbLine
 10
225.7003819497824
 20
226.6099222145923
 30
0.0
 11
225.7003819497771
 21
236.8945319054188
 31
0.0
  0
LINE
  5
3DF
330
77
100
AcDbEntity
  8
Spigoli visibili(ISO)
100
AcDbLine
 10
210.7003819497855
 20
214.77979519567
 30
0.0
 11
86.70038194978548
 21
214.77979519567
 31
0.0
  0
LINE
  5
3E0
330
77
100
AcDbEntity
  8
Spigoli visibili(ISO)
100
AcDbLine
 10
71.70038194977708
 20
236.8945319054188
 30
0.0
 11
71.7003819497759
 21
237.9663286751433
 31
0.0
  0
LINE
  5
3E1
330
77
100
AcDbEntity
  8
Spigoli visibili(ISO)
100
AcDbLine
 10
225.7003819497759
 20
237.9663286751433
 30
0.0
 11
225.7003819497771
 21
236.8945319054188
 31
0.0
  0
LINE
  5
3E2
330
77
100
AcDbEntity
  8
Spigoli visibili(ISO)
100
AcDbLine
 10
225.7003819497759
 20
237.9663286751433
 30
0.0
 11
71.7003819497759
 21
237.9663286751433
 31
0.0
  0
LINE
  5
3E3
330
77
100
AcDbEntity
  8
Spigoli nascosti(ISO)
 48
9.518777847290039
100
AcDbLine
 10
218.7003819497405
 20
232.9663286751432
 30
0.0
 11
218.7003819497405
 21
237.9663286751433
 31
0.0
  0
LINE
  5
3E4
330
77
100
AcDbEntity
  8
Spigoli nascosti(ISO)
 48
9.518777847290039
100
AcDbLine
 10
78.70038194974052
 20
237.9663286751433
 30
0.0
 11
78.70038194974052
 21
232.9663286751432
 31
0.0
  0
LINE
  5
3E5
330
77
100
AcDbEntity
  8
Spigoli nascosti(ISO)
 48
25.67864990234375
100
AcDbLine
 10
71.7003819497758
 20
232.9663286751432
 30
0.0
 11
225.7003819497758
 21
232.9663286751432
 31
0.0
  0
ELLIPSE
  5
3E6
330
77
100
AcDbEntity
  8
Spigoli visibili(ISO)
100
AcDbEllipse
 10
62.03050896869391
 20
242.9663286751432
 30
0.0
 11
0.0000000000000827
 21
-14.99999999999997
 31
0.0
210
0.0
220
0.0
230
0.9999999999999998
 40
0.499999999999756
 41
4.712388980384689
 42
6.283185307179593
  0
ELLIPSE
  5
3E7
330
77
100
AcDbEntity
  8
Spigoli visibili(ISO)
100
AcDbEllipse
 10
57.70038194977079
 20
242.9663286751432
 30
0.0
 11
0.0000000000000538
 21
-14.99999999999999
 31
0.0
210
0.0
220
0.0
230
1.0
 40
0.4999999999997569
 41
4.712388980384682
 42
6.283185307179597
  0
LINE
  5
3E8
330
77
100
AcDbEntity
  8
Spigoli visibili(ISO)
100
AcDbLine
 10
57.7003819497709
 20
227.9663286751433
 30
0.0
 11
62.03050896869381
 21
227.9663286751433
 31
0.0
  0
ELLIPSE
  5
3E9
330
77
100
AcDbEntity
  8
Spigoli visibili(ISO)
100
AcDbEllipse
 10
62.03050896869392
 20
377.9663286751433
 30
0.0
 11
0.0000000000000561
 21
14.99999999999998
 31
0.0
210
0.0
220
0.0
230
1.0
 40
0.4999999999997561
 41
0.0
 42
1.570796326794898
  0
LINE
  5
3EA
330
77
100
AcDbEntity
  8
Spigoli visibili(ISO)
100
AcDbLine
 10
235.3702549308498
 20
227.9663286751433
 30
0.0
 11
239.7003819497712
 21
227.9663286751433
 31
0.0
  0
ELLIPSE
  5
3EB
330
77
100
AcDbEntity
  8
Spigoli visibili(ISO)
100
AcDbEllipse
 10
239.7003819497712
 20
242.9663286751432
 30
0.0
 11
0.0000000000000355
 21
-15.00000000000001
 31
0.0
210
0.0
220
0.0
230
1.0
 40
0.5000000000002583
 41
0.0
 42
1.570796326794895
  0
ELLIPSE
  5
3EC
330
77
100
AcDbEntity
  8
Spigoli visibili(ISO)
100
AcDbEllipse
 10
235.3702549308497
 20
242.9663286751432
 30
0.0
 11
0.0000000000000157
 21
-15.00000000000001
 31
0.0
210
0.0
220
0.0
230
0.9999999999999998
 40
0.5000000000002587
 41
0.0
 42
1.570796326794896
  0
ELLIPSE
  5
3ED
330
77
100
AcDbEntity
  8
Spigoli visibili(ISO)
100
AcDbEllipse
 10
235.3702549308498
 20
377.9663286751433
 30
0.0
 11
-0.0000000000000711
 21
15.0
 31
0.0
210
0.0
220
0.0
230
1.0
 40
0.5000000000002541
 41
4.712388980384682
 42
6.283185307179586
  0
ELLIPSE
  5
3EE
330
77
100
AcDbEntity
  8
Spigoli visibili(ISO)
100
AcDbEllipse
 10
239.7003819497712
 20
377.9663286751433
 30
0.0
 11
0.0000000000000104
 21
14.99999999999996
 31
0.0
210
0.0
220
0.0
230
1.0
 40
0.5000000000002557
 41
4.712388980384689
 42
6.283185307179596
  0
LINE
  5
3EF
330
77
100
AcDbEntity
  8
Spigoli visibili(ISO)
100
AcDbLine
 10
239.7003819497712
 20
392.9663286751432
 30
0.0
 11
235.3702549308497
 21
392.9663286751432
 31
0.0
  0
LINE
  5
3F0
330
77
100
AcDbEntity
  8
Spigoli visibili(ISO)
100
AcDbLine
 10
62.03050896869381
 20
392.9663286751432
 30
0.0
 11
57.7003819497709
 21
392.9663286751432
 31
0.0
  0
ELLIPSE
  5
3F1
330
77
100
AcDbEntity
  8
Spigoli visibili(ISO)
100
AcDbEllipse
 10
57.70038194977079
 20
377.9663286751433
 30
0.0
 11
0.0000000000000611
 21
14.99999999999997
 31
0.0
210
0.0
220
0.0
230
0.9999999999999998
 40
0.499999999999757
 41
0.0
 42
1.570796326794889
  0
LINE
  5
3F2
330
77
100
AcDbEntity
  8
Spigoli visibili(ISO)
100
AcDbLine
 10
62.03050896869381
 20
227.9663286751433
 30
0.0
 11
70.36063598761195
 21
227.9663286751433
 31
0.0
  0
LINE
  5
3F3
330
77
100
AcDbEntity
  8
Spigoli visibili(ISO)
100
AcDbLine
 10
70.36063598761195
 20
392.9663286751432
 30
0.0
 11
62.03050896869381
 21
392.9663286751432
 31
0.0
  0
LINE
  5
3F4
330
77
100
AcDbEntity
  8
Spigoli visibili(ISO)
100
AcDbLine
 10
54.53050896869739
 20
242.9663286751432
 30
0.0
 11
54.53050896869739
 21
377.9663286751433
 31
0.0
  0
LINE
  5
3F5
330
77
100
AcDbEntity
  8
Spigoli visibili(ISO)
100
AcDbLine
 10
227.0401279119233
 20
227.9663286751433
 30
0.0
 11
235.3702549308498
 21
227.9663286751433
 31
0.0
  0
LINE
  5
3F6
330
77
100
AcDbEntity
  8
Spigoli visibili(ISO)
100
AcDbLine
 10
242.8702549308536
 20
242.9663286751432
 30
0.0
 11
242.8702549308536
 21
377.9663286751433
 31
0.0
  0
LINE
  5
3F7
330
77
100
AcDbEntity
  8
Spigoli visibili(ISO)
100
AcDbLine
 10
235.3702549308497
 20
392.9663286751432
 30
0.0
 11
227.0401279119233
 21
392.9663286751432
 31
0.0
  0
LINE
  5
3F8
330
77
100
AcDbEntity
  8
Spigoli visibili(ISO)
100
AcDbLine
 10
220.7003819497405
 20
392.9663286751432
 30
0.0
 11
76.70038194974051
 21
392.9663286751432
 31
0.0
  0
LINE
  5
3F9
330
77
100
AcDbEntity
  8
Spigoli visibili(ISO)
100
AcDbLine
 10
247.2003819497751
 20
242.9663286751432
 30
0.0
 11
247.2003819497751
 21
377.9663286751433
 31
0.0
  0
LINE
  5
3FA
330
77
100
AcDbEntity
  8
Spigoli visibili(ISO)
100
AcDbLine
 10
50.20038194977448
 20
242.9663286751432
 30
0.0
 11
50.20038194977448
 21
377.9663286751433
 31
0.0
  0
LINE
  5
3FB
330
77
100
AcDbEntity
  8
Spigoli nascosti(ISO)
 48
25.7898120880127
100
AcDbLine
 10
76.70038194974051
 20
227.9663286751433
 30
0.0
 11
220.7003819497405
 21
227.9663286751433
 31
0.0
  0
LINE
  5
3FC
330
77
100
AcDbEntity
  8
Spigoli visibili(ISO)
100
AcDbLine
 10
227.0401279119233
 20
227.9663286751433
 30
0.0
 11
225.7003819497663
 21
227.9663286751433
 31
0.0
  0
LINE
  5
3FD
330
77
100
AcDbEntity
  8
Spigoli visibili(ISO)
100
AcDbLine
 10
71.70038194976619
 20
227.9663286751433
 30
0.0
 11
70.36063598761195
 21
227.9663286751433
 31
0.0
  0
LINE
  5
3FE
330
77
100
AcDbEntity
  8
Spigoli visibili(ISO)
100
AcDbLine
 10
70.36063598761195
 20
392.9663286751432
 30
0.0
 11
71.70038194976618
 21
392.9663286751432
 31
0.0
  0
LINE
  5
3FF
330
77
100
AcDbEntity
  8
Spigoli visibili(ISO)
100
AcDbLine
 10
225.7003819497663
 20
392.9663286751432
 30
0.0
 11
227.0401279119233
 21
392.9663286751432
 31
0.0
  0
LINE
  5
400
330
77
100
AcDbEntity
  8
Spigoli visibili(ISO)
100
AcDbLine
 10
71.70038194976618
 20
237.9663286751433
 30
0.0
 11
71.70038194976618
 21
392.9663286751432
 31
0.0
  0
LINE
  5
401
330
77
100
AcDbEntity
  8
Spigoli visibili(ISO)
100
AcDbLine
 10
225.7003819497663
 20
392.9663286751432
 30
0.0
 11
225.7003819497663
 21
237.9663286751433
 31
0.0
  0
LINE
  5
402
330
77
100
AcDbEntity
  8
Spigoli nascosti(ISO)
 48
14.95211791992187
100
AcDbLine
 10
220.7003819497405
 20
227.9663286751433
 30
0.0
 11
225.700381949742
 21
227.9663286751433
 31
0.0
  0
LINE
  5
403
330
77
100
AcDbEntity
  8
Spigoli nascosti(ISO)
 48
14.95211791992187
100
AcDbLine
 10
71.70038194974198
 20
227.9663286751433
 30
0.0
 11
76.70038194974051
 21
227.9663286751433
 31
0.0
  0
LINE
  5
404
330
77
100
AcDbEntity
  8
Spigoli nascosti(ISO)
 48
25.73781776428223
100
AcDbLine
 10
66.70038194976618
 20
392.9663286751432
 30
0.0
 11
66.70038194976618
 21
227.9663286751433
 31
0.0
  0
LINE
  5
405
330
77
100
AcDbEntity
  8
Spigoli nascosti(ISO)
 48
25.73781776428223
100
AcDbLine
 10
230.7003819497662
 20
227.9663286751433
 30
0.0
 11
230.7003819497662
 21
392.9663286751432
 31
0.0
  0
LINE
  5
406
330
77
100
AcDbEntity
  8
Spigoli visibili(ISO)
100
AcDbLine
 10
76.70038194974051
 20
392.9663286751432
 30
0.0
 11
71.70038194974198
 21
392.9663286751432
 31
0.0
  0
LINE
  5
407
330
77
100
AcDbEntity
  8
Spigoli visibili(ISO)
100
AcDbLine
 10
225.700381949742
 20
392.9663286751432
 30
0.0
 11
220.7003819497405
 21
392.9663286751432
 31
0.0
  0
ARC
  5
408
330
77
100
AcDbEntity
  8
Spigoli visibili(ISO)
100
AcDbCircle
 10
187.2003819497405
 20
321.4663286751433
 30
0.0
 40
6.500000000000003
100
AcDbArc
 50
0.0
 51
180.0
  0
LINE
  5
409
330
77
100
AcDbEntity
  8
Spigoli visibili(ISO)
100
AcDbLine
 10
180.7003819497405
 20
299.4663286751432
 30
0.0
 11
180.7003819497405
 21
321.4663286751433
 31
0.0
  0
ARC
  5
40A
330
77
100
AcDbEntity
  8
Spigoli visibili(ISO)
100
AcDbCircle
 10
187.2003819497405
 20
299.4663286751432
 30
0.0
 40
6.500000000000003
100
AcDbArc
 50
180.0
 51
0.0
  0
LINE
  5
40B
330
77
100
AcDbEntity
  8
Spigoli visibili(ISO)
100
AcDbLine
 10
193.7003819497405
 20
321.4663286751433
 30
0.0
 11
193.7003819497405
 21
299.4663286751432
 31
0.0
  0
ARC
  5
40C
330
77
100
AcDbEntity
  8
Spigoli visibili(ISO)
100
AcDbCircle
 10
110.2003819497405
 20
321.4663286751433
 30
0.0
 40
6.499999999999999
100
AcDbArc
 50
0.0
 51
180.0
  0
LINE
  5
40D
330
77
100
AcDbEntity
  8
Spigoli visibili(ISO)
100
AcDbLine
 10
103.7003819497405
 20
299.4663286751432
 30
0.0
 11
103.7003819497405
 21
321.4663286751433
 31
0.0
  0
ARC
  5
40E
330
77
100
AcDbEntity
  8
Spigoli visibili(ISO)
100
AcDbCircle
 10
110.2003819497405
 20
299.4663286751432
 30
0.0
 40
6.500000000000003
100
AcDbArc
 50
180.0
 51
0.0
  0
LINE
  5
40F
330
77
100
AcDbEntity
  8
Spigoli visibili(ISO)
100
AcDbLine
 10
116.7003819497405
 20
321.4663286751433
 30
0.0
 11
116.7003819497405
 21
299.4663286751432
 31
0.0
  0
LINE
  5
410
330
77
100
AcDbEntity
  8
Spigoli nascosti(ISO)
 48
13.32632923126221
100
AcDbLine
 10
218.7003819497405
 20
228.0165812068374
 30
0.0
 11
218.700381949742
 21
232.9663286751432
 31
0.0
  0
LINE
  5
411
330
77
100
AcDbEntity
  8
Spigoli nascosti(ISO)
 48
13.32632923126221
100
AcDbLine
 10
78.70038194974199
 20
232.9663286751432
 30
0.0
 11
78.70038194974052
 21
228.0165812068374
 31
0.0
  0
LINE
  5
412
330
77
100
AcDbEntity
  8
Spigoli nascosti(ISO)
 48
25.07342910766602
100
AcDbLine
 10
218.7003819497405
 20
228.0165812068374
 30
0.0
 11
78.70038194974052
 21
228.0165812068374
 31
0.0
  0
LINE
  5
413
330
77
100
AcDbEntity
  8
Spigoli nascosti(ISO)
 48
13.32632923126221
100
AcDbLine
 10
76.65012941807205
 20
232.9663286751432
 30
0.0
 11
71.70038194976619
 21
228.0165812068374
 31
0.0
  0
LINE
  5
414
330
77
100
AcDbEntity
  8
Spigoli nascosti(ISO)
 48
13.32632923126221
100
AcDbLine
 10
225.7003819497662
 20
228.0165812068374
 30
0.0
 11
220.7506344814604
 21
232.9663286751432
 31
0.0
  0
ELLIPSE
  5
415
330
77
100
AcDbEntity
  8
Spigoli nascosti(ISO)
 48
28.48397636413574
100
AcDbEllipse
 10
86.70038194966794
 20
44.26254954918494
 30
0.0
 11
-15.0
 21
-0.0000000000044328
 31
0.0
210
0.0
220
0.0
230
1.0
 40
0.8660254037845874
 41
0.0000000000000012
 42
1.570796326794898
  0
ELLIPSE
  5
416
330
77
100
AcDbEntity
  8
Spigoli nascosti(ISO)
 48
28.48397636413574
100
AcDbEllipse
 10
210.7003819496679
 20
44.26254954922175
 30
0.0
 11
15.00000000000001
 21
0.0000000000044641
 31
0.0
210
0.0
220
0.0
230
1.0
 40
0.8660254037845868
 41
4.712388980384689
 42
6.283185307179586
  0
ELLIPSE
  5
417
330
77
100
AcDbEntity
  8
Spigoli visibili(ISO)
100
AcDbEllipse
 10
86.70038194966865
 20
41.76254954918622
 30
0.0
 11
-14.99999999999998
 21
-0.0000000000044678
 31
0.0
210
0.0
220
0.0
230
1.0
 40
0.866025403784587
 41
0.0
 42
1.570796326794896
  0
ELLIPSE
  5
418
330
77
100
AcDbEntity
  8
Spigoli visibili(ISO)
100
AcDbEllipse
 10
210.7003819496687
 20
41.76254954922305
 30
0.0
 11
15.00000000000001
 21
0.0000000000044506
 31
0.0
210
0.0
220
0.0
230
1.0
 40
0.8660254037845868
 41
4.712388980384687
 42
6.283185307179586
  0
LINE
  5
419
330
77
100
AcDbEntity
  8
Spigoli visibili(ISO)
100
AcDbLine
 10
71.70038194966339
 20
59.57601606971166
 30
0.0
 11
71.70038194966867
 21
41.7625495491818
 31
0.0
  0
LINE
  5
41A
330
77
100
AcDbEntity
  8
Spigoli visibili(ISO)
100
AcDbLine
 10
71.70038194965252
 20
96.1907527794608
 30
0.0
 11
71.70038194966221
 21
63.57601606971197
 31
0.0
  0
LINE
  5
41B
330
77
100
AcDbEntity
  8
Spigoli visibili(ISO)
100
AcDbLine
 10
210.7003819496725
 20
28.77216849245423
 30
0.0
 11
86.70038194967252
 21
28.77216849241744
 31
0.0
  0
LINE
  5
41C
330
77
100
AcDbEntity
  8
Spigoli visibili(ISO)
100
AcDbLine
 10
225.7003819496687
 20
41.7625495492275
 30
0.0
 11
225.7003819496634
 21
59.57601606975734
 31
0.0
  0
LINE
  5
41D
330
77
100
AcDbEntity
  8
Spigoli visibili(ISO)
100
AcDbLine
 10
225.7003819496622
 20
63.57601606975766
 30
0.0
 11
225.7003819496525
 21
96.19075277950637
 31
0.0
  0
LINE
  5
41E
330
77
100
AcDbEntity
  8
Spigoli nascosti(ISO)
 48
24.9838809967041
100
AcDbLine
 10
210.7003819496718
 20
31.27216849245293
 30
0.0
 11
86.7003819496718
 21
31.27216849241615
 31
0.0
  0
LINE
  5
41F
330
77
100
AcDbEntity
  8
Spigoli visibili(ISO)
100
AcDbLine
 10
71.70038194966339
 20
59.57601606971166
 30
0.0
 11
71.70038194966221
 21
63.57601606971197
 31
0.0
  0
LINE
  5
420
330
77
100
AcDbEntity
  8
Spigoli visibili(ISO)
100
AcDbLine
 10
225.7003819496622
 20
63.57601606975766
 30
0.0
 11
225.7003819496634
 21
59.57601606975733
 31
0.0
  0
LINE
  5
421
330
77
100
AcDbEntity
  8
Spigoli visibili(ISO)
100
AcDbLine
 10
218.7003819496268
 20
182.7721684924622
 30
0.0
 11
225.7003819496289
 21
175.7721684924643
 31
0.0
  0
LINE
  5
422
330
77
100
AcDbEntity
  8
Spigoli visibili(ISO)
100
AcDbLine
 10
71.70038194962891
 20
175.7721684924186
 30
0.0
 11
78.70038194962683
 21
182.7721684924206
 31
0.0
  0
LINE
  5
423
330
77
100
AcDbEntity
  8
Spigoli visibili(ISO)
100
AcDbLine
 10
70.36063598749827
 20
91.19075277950617
 30
0.0
 11
62.03050896858012
 21
76.76254954922846
 31
0.0
  0
LINE
  5
424
330
77
100
AcDbEntity
  8
Spigoli visibili(ISO)
100
AcDbLine
 10
235.3702549307361
 20
76.76254954927973
 30
0.0
 11
227.0401279118096
 21
91.19075277955273
 31
0.0
  0
LINE
  5
425
330
77
100
AcDbEntity
  8
Spigoli visibili(ISO)
100
AcDbLine
 10
231.370254930731
 20
93.6907527795541
 30
0.0
 11
239.7003819496575
 21
79.26254954928101
 31
0.0
  0
LINE
  5
426
330
77
100
AcDbEntity
  8
Spigoli visibili(ISO)
100
AcDbLine
 10
230.7003819496284
 20
177.7721684925117
 30
0.0
 11
230.7003819496525
 21
96.1907527795539
 31
0.0
  0
LINE
  5
427
330
77
100
AcDbEntity
  8
Spigoli visibili(ISO)
100
AcDbLine
 10
76.70038194962533
 20
187.772168492466
 30
0.0
 11
220.7003819496254
 21
187.7721684925088
 31
0.0
  0
LINE
  5
428
330
77
100
AcDbEntity
  8
Spigoli visibili(ISO)
100
AcDbLine
 10
66.7003819496525
 20
96.19075277950527
 30
0.0
 11
66.70038194962829
 21
177.7721684924631
 31
0.0
  0
LINE
  5
429
330
77
100
AcDbEntity
  8
Spigoli visibili(ISO)
100
AcDbLine
 10
57.70038194965722
 20
79.26254954922725
 30
0.0
 11
66.0305089685754
 21
93.69075277950498
 31
0.0
  0
LINE
  5
42A
330
77
100
AcDbEntity
  8
Spigoli visibili(ISO)
100
AcDbLine
 10
71.70038194962829
 20
177.7721684924645
 30
0.0
 11
71.7003819496525
 21
96.19075277950678
 31
0.0
  0
LINE
  5
42B
330
77
100
AcDbEntity
  8
Spigoli visibili(ISO)
100
AcDbLine
 10
220.7003819496268
 20
182.7721684925087
 30
0.0
 11
76.70038194962683
 21
182.772168492466
 31
0.0
  0
LINE
  5
42C
330
77
100
AcDbEntity
  8
Spigoli visibili(ISO)
100
AcDbLine
 10
225.7003819496526
 20
96.19075277955234
 30
0.0
 11
225.7003819496283
 21
177.7721684925102
 31
0.0
  0
LINE
  5
42D
330
77
100
AcDbEntity
  8
Spigoli visibili(ISO)
100
AcDbLine
 10
62.0305089685803
 20
76.76254954922836
 30
0.0
 11
54.53050896858389
 21
63.77216849245527
 31
0.0
  0
LINE
  5
42E
330
77
100
AcDbEntity
  8
Spigoli visibili(ISO)
100
AcDbLine
 10
242.8702549307399
 20
63.7721684925109
 30
0.0
 11
235.370254930736
 21
76.76254954927973
 31
0.0
  0
LINE
  5
42F
330
77
100
AcDbEntity
  8
Spigoli visibili(ISO)
100
AcDbLine
 10
242.8702549307399
 20
63.7721684925109
 30
0.0
 11
247.2003819496614
 21
66.27216849251218
 31
0.0
  0
LINE
  5
430
330
77
100
AcDbEntity
  8
Spigoli visibili(ISO)
100
AcDbLine
 10
239.7003819496575
 20
79.26254954928099
 30
0.0
 11
247.2003819496613
 21
66.27216849251218
 31
0.0
  0
LINE
  5
431
330
77
100
AcDbEntity
  8
Spigoli visibili(ISO)
100
AcDbLine
 10
50.20038194966076
 20
66.27216849245418
 30
0.0
 11
57.70038194965717
 21
79.26254954922727
 31
0.0
  0
LINE
  5
432
330
77
100
AcDbEntity
  8
Spigoli visibili(ISO)
100
AcDbLine
 10
50.2003819496608
 20
66.27216849245413
 30
0.0
 11
54.5305089685837
 21
63.77216849245536
 31
0.0
  0
ARC
  5
433
330
77
100
AcDbEntity
  8
Spigoli visibili(ISO)
100
AcDbCircle
 10
235.7003819496525
 20
96.19075277955545
 30
0.0
 40
5.000000000000035
100
AcDbArc
 50
180.0
 51
210.0000000000176
  0
ARC
  5
434
330
77
100
AcDbEntity
  8
Spigoli visibili(ISO)
100
AcDbCircle
 10
61.70038194965245
 20
96.19075277950379
 30
0.0
 40
5.000000000000053
100
AcDbArc
 50
330.0000000000158
 51
0.0
  0
ARC
  5
435
330
77
100
AcDbEntity
  8
Spigoli visibili(ISO)
100
AcDbCircle
 10
76.70038194962829
 20
177.772168492466
 30
0.0
 40
5.0
100
AcDbArc
 50
90.00000000001701
 51
180.0
  0
ARC
  5
436
330
77
100
AcDbEntity
  8
Spigoli visibili(ISO)
100
AcDbCircle
 10
220.7003819496283
 20
177.7721684925087
 30
0.0
 40
5.000000000000017
100
AcDbArc
 50
0.0
 51
90.00000000001669
  0
ARC
  5
437
330
77
100
AcDbEntity
  8
Spigoli visibili(ISO)
100
AcDbCircle
 10
220.7003819496283
 20
177.7721684925087
 30
0.0
 40
10.00000000000002
100
AcDbArc
 50
0.0
 51
90.00000000001687
  0
ARC
  5
438
330
77
100
AcDbEntity
  8
Spigoli visibili(ISO)
100
AcDbCircle
 10
76.70038194962829
 20
177.772168492466
 30
0.0
 40
9.999999999999998
100
AcDbArc
 50
90.0000000000171
 51
180.0
  0
ARC
  5
439
330
77
100
AcDbEntity
  8
Spigoli visibili(ISO)
100
AcDbCircle
 10
61.7003819496525
 20
96.19075277950379
 30
0.0
 40
10.00000000000001
100
AcDbArc
 50
330.0000000000159
 51
0.0
  0
ARC
  5
43A
330
77
100
AcDbEntity
  8
Spigoli visibili(ISO)
100
AcDbCircle
 10
235.7003819496531
 20
96.19075277955539
 30
0.0
 40
10.00000000000052
100
AcDbArc
 50
180.0
 51
210.000000000016
  0
LINE
  5
43B
330
77
100
AcDbEntity
  8
Spigoli nascosti(ISO)
 48
9.518777847290039
100
AcDbLine
 10
193.7003819496268
 20
182.7721684924796
 30
0.0
 11
193.7003819496253
 21
187.7721684924796
 31
0.0
  0
LINE
  5
43C
330
77
100
AcDbEntity
  8
Spigoli nascosti(ISO)
 48
9.518777847290039
100
AcDbLine
 10
180.7003819496268
 20
182.7721684924757
 30
0.0
 11
180.7003819496253
 21
187.7721684924757
 31
0.0
  0
LINE
  5
43D
330
77
100
AcDbEntity
  8
Spigoli nascosti(ISO)
 48
9.518777847290039
100
AcDbLine
 10
116.7003819496268
 20
182.7721684924567
 30
0.0
 11
116.7003819496253
 21
187.7721684924567
 31
0.0
  0
LINE
  5
43E
330
77
100
AcDbEntity
  8
Spigoli nascosti(ISO)
 48
9.518777847290039
100
AcDbLine
 10
103.7003819496268
 20
182.7721684924528
 30
0.0
 11
103.7003819496253
 21
187.7721684924528
 31
0.0
  0
LINE
  5
43F
330
77
100
AcDbEntity
  8
Spigoli nascosti(ISO)
 48
9.423108100891113
100
AcDbLine
 10
218.7003819496283
 20
177.8224210241549
 30
0.0
 11
218.7003819496268
 21
182.7721684924607
 31
0.0
  0
LINE
  5
440
330
77
100
AcDbEntity
  8
Spigoli nascosti(ISO)
 48
9.423108100891113
100
AcDbLine
 10
78.70038194962683
 20
182.7721684924191
 30
0.0
 11
78.7003819496283
 21
177.8224210241133
 31
0.0
  0
LINE
  5
441
330
77
100
AcDbEntity
  8
Spigoli nascosti(ISO)
 48
25.07342910766602
100
AcDbLine
 10
218.7003819496283
 20
177.8224210241549
 30
0.0
 11
78.7003819496283
 21
177.8224210241133
 31
0.0
  0
LINE
  5
442
330
77
100
AcDbEntity
  8
Spigoli nascosti(ISO)
 48
9.423108100891113
100
AcDbLine
 10
71.70038194965252
 20
96.19075277945931
 30
0.0
 11
76.65012941795836
 21
96.19075277946075
 31
0.0
  0
LINE
  5
443
330
77
100
AcDbEntity
  8
Spigoli nascosti(ISO)
 48
25.65487289428711
100
AcDbLine
 10
76.65012941793476
 20
175.7721684924186
 30
0.0
 11
76.65012941795836
 21
96.19075277946075
 31
0.0
  0
LINE
  5
444
330
77
100
AcDbEntity
  8
Spigoli nascosti(ISO)
 48
9.423108100891113
100
AcDbLine
 10
76.65012941793476
 20
175.7721684924186
 30
0.0
 11
71.70038194962891
 21
175.7721684924171
 31
0.0
  0
LINE
  5
445
330
77
100
AcDbEntity
  8
Spigoli nascosti(ISO)
 48
25.65487289428711
100
AcDbLine
 10
220.7506344813231
 20
175.7721684924613
 30
0.0
 11
220.7506344813467
 21
96.19075277950342
 31
0.0
  0
LINE
  5
446
330
77
100
AcDbEntity
  8
Spigoli nascosti(ISO)
 48
9.423108100891113
100
AcDbLine
 10
220.7506344813467
 20
96.19075277950342
 30
0.0
 11
225.7003819496525
 21
96.19075277950488
 31
0.0
  0
LINE
  5
447
330
77
100
AcDbEntity
  8
Spigoli nascosti(ISO)
 48
9.423108100891113
100
AcDbLine
 10
225.7003819496289
 20
175.7721684924628
 30
0.0
 11
220.7506344813231
 21
175.7721684924613
 31
0.0
  0
LINE
  5
448
330
77
100
AcDbEntity
  8
Centro(ISO)
  6
CHAIN
 48
20.4628849029541
100
AcDbLine
 10
119.2003819497405
 20
321.4663286751433
 30
0.0
 11
101.2003819497405
 21
321.4663286751433
 31
0.0
  0
LINE
  5
449
330
77
100
AcDbEntity
  8
Centro(ISO)
  6
CHAIN
 48
20.4628849029541
100
AcDbLine
 10
119.2003819497405
 20
299.4663286751432
 30
0.0
 11
101.2003819497405
 21
299.4663286751432
 31
0.0
  0
LINE
  5
44A
330
77
100
AcDbEntity
  8
Linea del centro(ISO)
  6
CHAIN
 48
20.4628849029541
100
AcDbLine
 10
110.2003819497405
 20
330.4663286751432
 30
0.0
 11
110.2003819497405
 21
290.4663286751432
 31
0.0
  0
LINE
  5
44B
330
77
100
AcDbEntity
  8
Centro(ISO)
  6
CHAIN
 48
20.4628849029541
100
AcDbLine
 10
178.2003819497405
 20
299.4663286751432
 30
0.0
 11
196.2003819497405
 21
299.4663286751432
 31
0.0
  0
LINE
  5
44C
330
77
100
AcDbEntity
  8
Centro(ISO)
  6
CHAIN
 48
20.4628849029541
100
AcDbLine
 10
178.2003819497405
 20
321.4663286751433
 30
0.0
 11
196.2003819497405
 21
321.4663286751433
 31
0.0
  0
LINE
  5
44D
330
77
100
AcDbEntity
  8
Linea del centro(ISO)
  6
CHAIN
 48
20.4628849029541
100
AcDbLine
 10
187.2003819497405
 20
290.4663286751432
 30
0.0
 11
187.2003819497405
 21
330.4663286751432
 31
0.0
  0
LINE
  5
44E
330
77
100
AcDbEntity
  8
Linea del centro(ISO)
  6
CHAIN
 48
8.333955764770507
100
AcDbLine
 10
110.2003819496272
 20
181.5221684924548
 30
0.0
 11
110.200381949625
 21
189.0221684924547
 31
0.0
  0
LINE
  5
44F
330
77
100
AcDbEntity
  8
Linea del centro(ISO)
  6
CHAIN
 48
8.333955764770507
100
AcDbLine
 10
187.2003819496272
 20
181.5221684924776
 30
0.0
 11
187.200381949625
 21
189.0221684924776
 31
0.0
  0
DIMENSION
  5
450
330
77
100
AcDbEntity
  8
Quote(ISO)
  6
Continuous
 62
    96
370
    25
100
AcDbDimension
  2
*D11
 10
187.2003819497405
 20
398.4718698288777
 30
0.0
 11
206.4503819497534
 21
398.4718698288777
 31
0.0
 70
   160
  1
<>
 42
38.50000000002575
  3
MAURO
100
AcDbAlignedDimension
 13
225.7003819497663
 23
392.9663286751432
 33
0.0
 14
187.2003819497405
 24
330.4663286751432
 34
0.0
 50
180.0
100
AcDbRotatedDimension
1001
ACAD
1000
DSTYLE
1002
{
1070
   172
1070
     0
1070
   289
1070
     1
1070
    74
1070
     0
1070
   271
1070
     3
1070
   272
1070
     3
1070
    48
1040
0.0
1070
    47
1040
0.0
1002
}
  0
DIMENSION
  5
533
330
77
100
AcDbEntity
  8
Quote(ISO)
  6
Continuous
 62
    96
370
    25
100
AcDbDimension
  2
*D12
 10
110.2003819497405
 20
398.4718698288777
 30
0.0
 11
148.7003819497405
 21
398.4718698288777
 31
0.0
 70
   160
  1
<>
 42
77.0
  3
MAURO
100
AcDbAlignedDimension
 13
187.2003819497405
 23
330.4663286751432
 33
0.0
 14
110.2003819497405
 24
330.4663286751432
 34
0.0
 50
180.0
100
AcDbRotatedDimension
1001
ACAD
1000
DSTYLE
1002
{
1070
   172
1070
     0
1070
   289
1070
     1
1070
    74
1070
     0
1070
   271
1070
     3
1070
   272
1070
     3
1070
    48
1040
0.0
1070
    47
1040
0.0
1002
}
  0
DIMENSION
  5
60F
330
77
100
AcDbEntity
  8
Quote(ISO)
  6
Continuous
 62
    96
370
    25
100
AcDbDimension
  2
*D13
 10
71.70038194976621
 20
398.4718698288777
 30
0.0
 11
90.95038194975336
 21
398.4718698288777
 31
0.0
 70
   160
  1
<>
 42
38.49999999997431
  3
MAURO
100
AcDbAlignedDimension
 13
110.2003819497405
 23
330.4663286751432
 33
0.0
 14
71.70038194976621
 24
392.9663286751432
 34
0.0
100
AcDbRotatedDimension
1001
ACAD
1000
DSTYLE
1002
{
1070
   172
1070
     0
1070
   289
1070
     1
1070
    74
1070
     0
1070
   271
1070
     3
1070
   272
1070
     3
1070
    48
1040
0.0
1070
    47
1040
0.0
1002
}
  0
DIMENSION
  5
6F1
330
77
100
AcDbEntity
  8
Quote(ISO)
  6
Continuous
 62
    96
370
    25
100
AcDbDimension
  2
*D14
 10
130.945562081304
 20
292.9663286751432
 30
0.0
 11
130.945562081304
 21
265.4663286751433
 31
0.0
 70
   160
  1
<>
 42
54.99999999999997
  3
MAURO
100
AcDbAlignedDimension
 13
130.945562081304
 23
237.9663286751433
 33
0.0
 14
110.2003819497405
 24
292.9663286751432
 34
0.0
 50
90.0
100
AcDbRotatedDimension
1001
ACAD
1000
DSTYLE
1002
{
1070
   172
1070
     0
1070
   289
1070
     1
1070
    74
1070
     0
1070
   271
1070
     3
1070
    75
1070
     1
1070
   272
1070
     3
1070
    48
1040
0.0
1070
    47
1040
0.0
1002
}
  0
DIMENSION
  5
7D2
330
77
100
AcDbEntity
  8
Quote(ISO)
  6
Continuous
 62
    96
370
    25
100
AcDbDimension
  2
*D15
 10
130.9455620813041
 20
327.9663286751432
 30
0.0
 11
130.945562081304
 21
310.4663286751432
 31
0.0
 70
   160
  1
<>
 42
35.0
  3
MAURO
100
AcDbAlignedDimension
 13
110.2003819497405
 23
292.9663286751432
 33
0.0
 14
110.2003819497405
 24
327.9663286751433
 34
0.0
 50
90.0
100
AcDbRotatedDimension
1001
ACAD
1000
DSTYLE
1002
{
1070
   172
1070
     0
1070
   289
1070
     1
1070
    74
1070
     0
1070
   271
1070
     3
1070
   272
1070
     3
1070
    48
1040
0.0
1070
    47
1040
0.0
1002
}
  0
DIMENSION
  5
8BA
330
77
100
AcDbEntity
  8
Quote(ISO)
  6
Continuous
 62
    96
370
    25
100
AcDbDimension
  2
*D16
 10
130.952782221238
 20
392.9663286751432
 30
0.0
 11
130.9527822212379
 21
360.4663286751432
 31
0.0
 70
   160
  1
<>
 42
65.00000000000006
  3
MAURO
100
AcDbAlignedDimension
 13
110.2003819497405
 23
327.9663286751433
 33
0.0
 14
145.942332988728
 24
392.9663286751432
 34
0.0
 50
90.0
100
AcDbRotatedDimension
1001
ACAD
1000
DSTYLE
1002
{
1070
   172
1070
     0
1070
   289
1070
     1
1070
    74
1070
     0
1070
   271
1070
     3
1070
    76
1070
     1
1070
   272
1070
     3
1070
    48
1040
0.0
1070
    47
1040
0.0
1002
}
  0
DIMENSION
  5
99F
330
77
100
AcDbEntity
  8
Quote(ISO)
  6
Continuous
 62
    96
370
    25
100
AcDbDimension
  2
*D17
 10
142.5617228236733
 20
237.9663286751433
 30
0.0
 11
142.5617228236733
 21
315.4663286751433
 31
0.0
 70
   160
  1
<>
 42
155.0
  3
MAURO
100
AcDbAlignedDimension
 13
142.5617228236733
 23
392.9663286751432
 33
0.0
 14
142.5617228236732
 24
237.9663286751433
 34
0.0
 50
90.0
100
AcDbRotatedDimension
1001
ACAD
1000
DSTYLE
1002
{
1070
   172
1070
     0
1070
   289
1070
     1
1070
    74
1070
     0
1070
   271
1070
     3
1070
    76
1070
     1
1070
    75
1070
     1
1070
   272
1070
     3
1070
    48
1040
0.0
1070
    47
1040
0.0
1002
}
  0
DIMENSION
  5
A5B
330
77
100
AcDbEntity
  8
Quote(ISO)
  6
Continuous
 62
    96
370
    25
100
AcDbDimension
  2
*D18
 10
193.7003819497405
 20
279.4663286751433
 30
0.0
 11
187.2003819497405
 21
279.4663286751433
 31
0.0
 70
   160
  1
<>
 42
13.00000000000003
  3
MAURO
100
AcDbAlignedDimension
 13
180.7003819497405
 23
299.4663286751432
 33
0.0
 14
193.7003819497405
 24
299.4663286751432
 34
0.0
100
AcDbRotatedDimension
1001
ACAD
1000
DSTYLE
1002
{
1070
   172
1070
     0
1070
   289
1070
     1
1070
    74
1070
     0
1070
   271
1070
     3
1070
   272
1070
     3
1070
    48
1040
0.0
1070
    47
1040
0.0
1002
}
  0
DIMENSION
  5
B3D
330
77
100
AcDbEntity
  8
Quote(ISO)
  6
Continuous
 62
    96
370
    25
100
AcDbDimension
  2
*D19
 10
218.7003819496231
 20
195.4136340564396
 30
0.0
 11
148.700381949623
 21
195.4136340564187
 31
0.0
 70
   160
  1
<>
 42
140.0
  3
MAURO
100
AcDbAlignedDimension
 13
78.70038194962685
 23
182.7721684924191
 33
0.0
 14
218.7003819496268
 24
182.7721684924607
 34
0.0
 50
180.000000000017
100
AcDbRotatedDimension
1001
ACAD
1000
DSTYLE
1002
{
1070
   172
1070
     0
1070
   289
1070
     1
1070
    74
1070
     0
1070
   271
1070
     3
1070
   272
1070
     3
1070
    48
1040
0.0
1070
    47
1040
0.0
1002
}
  0
DIMENSION
  5
C13
330
77
100
AcDbEntity
  8
Quote(ISO)
  6
Continuous
 62
    96
370
    25
100
AcDbDimension
  2
*D20
 10
230.7003819496284
 20
203.7160426033385
 30
0.0
 11
148.7003819496283
 21
203.7160426033385
 31
0.0
 70
   160
  1
<>
 42
164.0
  3
MAURO
100
AcDbAlignedDimension
 13
66.70038194962832
 23
177.7721684924631
 33
0.0
 14
230.7003819496284
 24
177.7721684925117
 34
0.0
 50
180.0
100
AcDbRotatedDimension
1001
ACAD
1000
DSTYLE
1002
{
1070
   172
1070
     0
1070
   289
1070
     1
1070
    74
1070
     0
1070
   271
1070
     3
1070
   272
1070
     3
1070
    48
1040
0.0
1070
    47
1040
0.0
1002
}
  0
DIMENSION
  5
CE9
330
77
100
AcDbEntity
  8
Quote(ISO)
  6
Continuous
 62
    96
370
    25
100
AcDbDimension
  2
*D21
 10
88.21481224288735
 20
96.19075277946075
 30
0.0
 11
88.21481224288733
 21
135.9814606359396
 31
0.0
 70
   160
  1
 81,5
 42
79.58141571295785
  3
MAURO
100
AcDbAlignedDimension
 13
76.65012941793476
 23
175.7721684924186
 33
0.0
 14
76.65012941795838
 24
96.19075277946075
 34
0.0
 50
90.0
100
AcDbRotatedDimension
1001
ACAD
1000
DSTYLE
1002
{
1070
   172
1070
     0
1070
   289
1070
     1
1070
    74
1070
     0
1070
   271
1070
     3
1070
   272
1070
     3
1070
    48
1040
0.0
1070
    47
1040
0.0
1002
}
  0
DIMENSION
  5
DCB
330
77
100
AcDbEntity
  8
Quote(ISO)
  6
Continuous
 62
    96
370
    25
100
AcDbDimension
  2
*D22
 10
210.7506344813467
 20
96.19075277950342
 30
0.0
 11
210.7506344813467
 21
135.9814606359824
 31
0.0
 70
   160
  1
 81,5
 42
79.58141571295794
  3
MAURO
100
AcDbAlignedDimension
 13
220.7506344813231
 23
175.7721684924613
 33
0.0
 14
220.7506344813467
 24
96.19075277950342
 34
0.0
 50
90.0
100
AcDbRotatedDimension
1001
ACAD
1000
DSTYLE
1002
{
1070
   172
1070
     0
1070
   289
1070
     1
1070
    74
1070
     0
1070
   271
1070
     3
1070
   272
1070
     3
1070
    48
1040
0.0
1070
    47
1040
0.0
1002
}
  0
DIMENSION
  5
EAD
330
77
100
AcDbEntity
  8
Quote(ISO)
  6
Continuous
 62
    96
370
    25
100
AcDbDimension
  2
*D23
 10
258.351595789407
 20
187.7721684925088
 30
0.0
 11
258.3515957894069
 21
141.3115876549631
 31
0.0
 70
   160
  1
<>
 42
92.92116167511059
  3
MAURO
100
AcDbAlignedDimension
 13
230.700381949653
 23
94.85100681739817
 33
0.0
 14
220.7003819496254
 24
187.7721684925088
 34
0.0
 50
270.000000000017
100
AcDbRotatedDimension
1001
ACAD
1000
DSTYLE
1002
{
1070
   172
1070
     0
1070
   289
1070
     1
1070
    74
1070
     0
1070
   271
1070
     0
1070
   272
1070
     3
1070
    48
1040
0.0
1070
    47
1040
0.0
1002
}
  0
LINE
  5
F8F
330
77
100
AcDbEntity
  8
Quote(ISO)
100
AcDbLine
 10
230.8702549307308
 20
94.55677818333841
 30
0.0
 11
230.2003819496527
 21
95.71703222118246
 31
0.0
  0
LINE
  5
F90
330
77
100
AcDbEntity
  8
Quote(ISO)
100
AcDbLine
 10
230.7003819496529
 20
95.19075277955392
 30
0.0
 11
230.7003819496533
 21
93.85100681739816
 31
0.0
  0
DIMENSION
  5
F91
330
77
100
AcDbEntity
  8
Quote(ISO)
  6
Continuous
 62
    96
370
    25
100
AcDbDimension
  2
*D24
 10
269.2322760775683
 20
63.77216849251147
 30
0.0
 11
269.2322760775683
 21
125.7721684333706
 31
0.0
 70
   160
  1
<>
 42
123.9999999999973
  3
MAURO
100
AcDbAlignedDimension
 13
220.7003819496254
 23
187.7721684925088
 33
0.0
 14
242.8702549307409
 24
63.77216849251147
 34
0.0
 50
270.000000000017
100
AcDbRotatedDimension
1001
ACAD
1000
DSTYLE
1002
{
1070
   172
1070
     0
1070
   289
1070
     1
1070
    74
1070
     0
1070
   271
1070
     3
1070
   272
1070
     3
1070
    48
1040
0.0
1070
    47
1040
0.0
1002
}
  0
DIMENSION
  5
1067
330
77
100
AcDbEntity
  8
Quote(ISO)
  6
Continuous
 62
    96
370
    25
100
AcDbDimension
  2
*D25
 10
71.70038194967482
 20
21.06511508347693
 30
0.0
 11
60.9503819496745
 21
21.06511508347374
 31
0.0
 70
   160
  1
<>
 42
21.50000000000061
  3
MAURO
100
AcDbAlignedDimension
 13
50.2003819496608
 23
66.27216849245415
 33
0.0
 14
71.70038194966868
 24
41.7625495491818
 34
0.0
 50
180.0000000000169
100
AcDbRotatedDimension
1001
ACAD
1000
DSTYLE
1002
{
1070
   172
1070
     0
1070
   289
1070
     1
1070
    74
1070
     0
1070
   271
1070
     3
1070
   272
1070
     3
1070
    48
1040
0.0
1070
    47
1040
0.0
1002
}
  0
DIMENSION
  5
1149
330
77
100
AcDbEntity
  8
Quote(ISO)
  6
Continuous
 62
    96
370
    25
100
AcDbDimension
  2
*D26
 10
225.7003819496687
 20
20.7890571114927
 30
0.0
 11
148.7003819496749
 21
20.7890571114927
 31
0.0
 70
   160
  1
<>
 42
154.0000000000007
  3
MAURO
100
AcDbAlignedDimension
 13
71.70038194966796
 23
44.26254954918052
 33
0.0
 14
225.7003819496687
 24
41.7625495492275
 34
0.0
 50
0.0000000000170263
100
AcDbRotatedDimension
1001
ACAD
1000
DSTYLE
1002
{
1070
   172
1070
     0
1070
   289
1070
     1
1070
    74
1070
     0
1070
   271
1070
     3
1070
   272
1070
     3
1070
    48
1040
0.0
1070
    47
1040
0.0
1002
}
  0
DIMENSION
  5
121F
330
77
100
AcDbEntity
  8
Quote(ISO)
  6
Continuous
 62
    96
370
    25
100
AcDbDimension
  2
*D27
 10
247.2003819496623
 20
20.77641209139673
 30
0.0
 11
236.450381983826
 21
20.77641209139673
 31
0.0
 70
   160
  1
<>
 42
21.49999999999363
  3
MAURO
100
AcDbAlignedDimension
 13
225.7003819496687
 23
41.7625495492275
 33
0.0
 14
247.2003819496623
 24
66.27216849251275
 34
0.0
 50
0.0000000000170263
100
AcDbRotatedDimension
1001
ACAD
1000
DSTYLE
1002
{
1070
   172
1070
     0
1070
   289
1070
     1
1070
    74
1070
     0
1070
   271
1070
     3
1070
   272
1070
     3
1070
    48
1040
0.0
1070
    47
1040
0.0
1002
}
  0
DIMENSION
  5
1301
330
77
100
AcDbEntity
  8
Quote(ISO)
  6
Continuous
 62
    96
370
    25
100
AcDbDimension
  2
*D28
 10
247.2003819496623
 20
13.70287273851592
 30
0.0
 11
148.7003820179623
 21
13.70287273851592
 31
0.0
 70
   160
  1
<>
 42
197.0000000000025
  3
MAURO
100
AcDbAlignedDimension
 13
50.20038194965981
 23
66.27216849245472
 33
0.0
 14
247.2003819496623
 24
66.27216849251275
 34
0.0
 50
180.0
100
AcDbRotatedDimension
1001
ACAD
1000
DSTYLE
1002
{
1070
   172
1070
     0
1070
   289
1070
     1
1070
    74
1070
     0
1070
   271
1070
     3
1070
   272
1070
     3
1070
    48
1040
0.0
1070
    47
1040
0.0
1002
}
  0
DIMENSION
  5
13D7
330
77
100
AcDbEntity
  8
Quote(ISO)
  6
Continuous
 62
    96
370
    25
100
AcDbDimension
  2
*D29
 10
58.29507907042587
 20
56.68049389353547
 30
0.0
 11
61.5561031455624
 21
55.65229695214071
 31
0.0
 70
   165
  1
<>
 42
0.5235987755983187
  3
MAURO
100
AcDb3PointAngularDimension
 13
70.3606359874983
 23
91.19075277950617
 33
0.0
 14
71.70038194965363
 24
92.51126085519544
 34
0.0
 15
71.70038194965333
 25
93.51126085519544
 35
0.0
1001
ACAD_DSTYLE_DIMANGULAR_EXTENSION
1070
   387
1070
     1
1001
ACAD
1000
DSTYLE
1002
{
1070
   179
1070
     3
1070
    74
1070
     0
1070
   272
1070
     2
1070
    48
1040
0.0
1070
    47
1040
0.0
1002
}
  0
DIMENSION
  5
1508
330
77
100
AcDbEntity
  8
Quote(ISO)
  6
Continuous
 62
    96
370
    25
100
AcDbDimension
  2
*D30
 10
539.00306466802
 20
197.6646372745943
 30
0.0
 11
522.0030647271705
 21
197.6646372745943
 31
0.0
 70
   160
  1
<>
 42
34.00000000000006
  3
MAURO
100
AcDbAlignedDimension
 13
505.0030646680199
 23
232.9663286751432
 33
0.0
 14
539.00306466802
 24
219.1099222145922
 34
0.0
 50
180.0
100
AcDbRotatedDimension
1001
ACAD
1000
DSTYLE
1002
{
1070
   172
1070
     0
1070
   289
1070
     1
1070
    74
1070
     0
1070
   271
1070
     3
1070
   272
1070
     3
1070
    48
1040
0.0
1070
    47
1040
0.0
1002
}
  0
LINE
  5
15EA
330
77
100
AcDbEntity
  8
Quote(ISO)
100
AcDbLine
 10
505.065242494511
 20
232.930430290281
 30
0.0
 11
504.1370392642355
 21
233.4663286751433
 31
0.0
  0
LINE
  5
15EB
330
77
100
AcDbEntity
  8
Quote(ISO)
100
AcDbLine
 10
504.9312678982955
 20
232.9663286751432
 30
0.0
 11
506.00306466802
 21
232.9663286751432
 31
0.0
  0
DIMENSION
  5
15EC
330
77
100
AcDbEntity
  8
Quote(ISO)
  6
Continuous
 62
    96
370
    25
100
AcDbDimension
  2
*D31
 10
385.0030646680199
 20
197.8838281184039
 30
0.0
 11
445.0030646680199
 21
197.8838281184039
 31
0.0
 70
   160
  1
<>
 42
120.0
  3
MAURO
100
AcDbAlignedDimension
 13
505.0030646680199
 23
232.9663286751432
 33
0.0
 14
385.0030646680199
 24
227.9663286751433
 34
0.0
 50
180.0
100
AcDbRotatedDimension
1001
ACAD
1000
DSTYLE
1002
{
1070
   172
1070
     0
1070
   289
1070
     1
1070
    74
1070
     0
1070
   271
1070
     3
1070
   272
1070
     3
1070
    48
1040
0.0
1070
    47
1040
0.0
1002
}
  0
LINE
  5
16C2
330
77
100
AcDbEntity
  8
Quote(ISO)
100
AcDbLine
 10
505.065242494511
 20
232.930430290281
 30
0.0
 11
504.1370392642355
 21
233.4663286751433
 31
0.0
  0
LINE
  5
16C3
330
77
100
AcDbEntity
  8
Quote(ISO)
100
AcDbLine
 10
504.9312678982955
 20
232.9663286751432
 30
0.0
 11
506.00306466802
 21
232.9663286751432
 31
0.0
  0
DIMENSION
  5
16C4
330
77
100
AcDbEntity
  8
Quote(ISO)
  6
Continuous
 62
    96
370
    25
100
AcDbDimension
  2
*D32
 10
539.00306466802
 20
188.0889788262078
 30
0.0
 11
462.0030646680199
 21
188.0889788262078
 31
0.0
 70
   160
  1
<>
 42
154.0
  3
MAURO
100
AcDbAlignedDimension
 13
385.0030646680199
 23
227.9663286751433
 33
0.0
 14
539.00306466802
 24
219.1099222145922
 34
0.0
100
AcDbRotatedDimension
1001
ACAD
1000
DSTYLE
1002
{
1070
   172
1070
     0
1070
   289
1070
     1
1070
    74
1070
     0
1070
   271
1070
     3
1070
   272
1070
     3
1070
    48
1040
0.0
1070
    47
1040
0.0
1002
}
  0
DIMENSION
  5
179A
330
77
100
AcDbEntity
  8
Quote(ISO)
  6
Continuous
 62
    96
370
    25
100
AcDbDimension
  2
*D33
 10
535.4379408527659
 20
227.3765673120217
 30
0.0
 11
536.2501836153321
 21
229.9526722360341
 31
0.0
 70
   165
  1
<>
 42
0.5235987755983232
  3
MAURO
100
AcDb3PointAngularDimension
 13
508.1992170907266
 23
236.8945319054188
 33
0.0
 14
507.3428106301755
 24
237.9663286751433
 34
0.0
 15
506.3428106301755
 25
237.9663286751433
 35
0.0
1001
ACAD_DSTYLE_DIMANGULAR_EXTENSION
1070
   387
1070
     1
1001
ACAD
1000
DSTYLE
1002
{
1070
   179
1070
     3
1070
    74
1070
     0
1070
   272
1070
     2
1070
    48
1040
0.0
1070
    47
1040
0.0
1002
}
  0
LINE
  5
18CA
330
77
100
AcDbEntity
  8
Quote(ISO)
100
AcDbLine
 10
505.1992170907266
 20
237.9663286751433
 30
0.0
 11
506.3428106301755
 21
237.9663286751433
 31
0.0
  0
DIMENSION
  5
18CB
330
77
100
AcDbEntity
  8
Quote(ISO)
  6
Continuous
 62
    96
370
    25
100
AcDbDimension
  2
*D34
 10
556.5030647863213
 20
214.77979519567
 30
0.0
 11
556.5030647863213
 21
226.373061901256
 31
0.0
 70
   160
  1
<>
 42
23.18653347947324
  3
MAURO
100
AcDbAlignedDimension
 13
504.1992170907266
 23
237.9663286751433
 33
0.0
 14
536.50306466802
 24
214.77979519567
 34
0.0
 50
270.0
100
AcDbRotatedDimension
1001
ACAD
1000
DSTYLE
1002
{
1070
   172
1070
     0
1070
   289
1070
     1
1070
    74
1070
     0
1070
   271
1070
     0
1070
   272
1070
     3
1070
    48
1040
0.0
1070
    47
1040
0.0
1002
}
  0
DIMENSION
  5
1AC3
330
77
100
AcDbEntity
  8
Quote(ISO)
  6
Continuous
 62
    96
370
    25
100
AcDbDimension
  2
*D36
 10
352.1962118869454
 20
227.9663286751433
 30
0.0
 11
352.1962118869453
 21
310.4663286751432
 31
0.0
 70
   160
  1
<>
 42
164.9999999999999
  3
MAURO
100
AcDbAlignedDimension
 13
380.0030646680199
 23
392.9663286751432
 33
0.0
 14
380.0030646680199
 24
227.9663286751433
 34
0.0
 50
90.0
100
AcDbRotatedDimension
1001
ACAD
1000
DSTYLE
1002
{
1070
   172
1070
     0
1070
   289
1070
     1
1070
    74
1070
     0
1070
   271
1070
     3
1070
   272
1070
     3
1070
    48
1040
0.0
1070
    47
1040
0.0
1002
}
  0
LEADER
  5
1B9A
330
77
100
AcDbEntity
  8
Simboli(ISO)
  6
Continuous
 62
   179
370
    18
100
AcDbLeader
  3
MAURO$7
 76
     2
 10
75.20038194962788
 20
179.2721684924196
 30
0.0
 10
139.6608845119333
 20
109.5507461027166
 30
0.0
213
0.0
223
-1.749999970197677
233
0.0
1001
ACAD
1000
DSTYLE
1002
{
1070
    77
1070
     0
1002
}
  0
MTEXT
  5
1B9B
102
{ACAD_REACTORS
330
1B9C
102
}
330
77
100
AcDbEntity
  8
Simboli(ISO)
 62
     7
100
AcDbMText
 10
137.9781086375146
 20
111.2959095574273
 30
0.0
 40
3.499999940395355
 41
0.0
 71
     1
 72
     1
  1
{ }
  7
Corrente-ISO
 73
     1
 44
1.0
1001
ACAD
1000
MTEXTBEGIN
1070
    73
1070
     1
1070
    44
1040
1.0
1070
    74
1070
     0
1000
MTEXTEND
  0
LEADER
  5
1B9C
330
77
100
AcDbEntity
  8
Simboli(ISO)
  6
Continuous
 62
   179
370
    18
100
AcDbLeader
  3
MAURO$7
 73
     0
 75
     1
 40
3.499999940395355
 41
1.358458367042944
 76
     3
 10
222.2003819496279
 20
179.2721684924632
 30
0.0
 10
142.5979592189221
 20
109.5459095872297
 30
0.0
 10
140.0979592189221
 20
109.5459095872297
 30
0.0
340
1B9B
213
1.357850581407546
223
-1.749999970197677
233
0.0
1001
ACAD
1000
DSTYLE
1002
{
1070
    77
1070
     0
1002
}
  0
ENDSEC
  0
SECTION
  2
OBJECTS
  0
DICTIONARY
  5
C
330
0
100
AcDbDictionary
281
     1
  3
ACAD_COLOR
350
6E
  3
ACAD_GROUP
350
D
  3
ACAD_LAYOUT
350
6D
  3
ACAD_MATERIAL
350
10
  3
ACAD_MLEADERSTYLE
350
71
  3
ACAD_MLINESTYLE
350
6A
  3
ACAD_PLOTSETTINGS
350
6C
  3
ACAD_PLOTSTYLENAME
350
E
  3
ACAD_SCALELIST
350
3D
  3
ACAD_TABLESTYLE
350
6F
  3
ACAD_VISUALSTYLE
350
29
  3
ACDB_RECOMPOSE_DATA
350
1D99
  3
AcDbVariableDictionary
350
1CAB
  3
AcmDictionary
350
1D1D
  3
AMG
350
1CC6
  3
AMGSNAPSETTINGS
350
1D54
  3
DWGPROPS
350
1D9A
  0
DICTIONARY
  5
1C62
330
8
100
AcDbDictionary
280
     1
281
     1
  0
DICTIONARY
  5
1BA8
330
27F
100
AcDbDictionary
280
     1
281
     1
  3
ACAD_MLATT
360
1D5E
  3
ACAD_XREC_ROUNDTRIP
360
1D5D
  0
DICTIONARY
  5
1BAB
330
282
100
AcDbDictionary
280
     1
281
     1
  3
ACAD_MLATT
360
1D60
  3
ACAD_XREC_ROUNDTRIP
360
1D5F
  0
DICTIONARY
  5
1BAE
330
284
100
AcDbDictionary
280
     1
281
     1
  3
ACAD_MLATT
360
1D62
  3
ACAD_XREC_ROUNDTRIP
360
1D61
  0
DICTIONARY
  5
1BB1
330
286
100
AcDbDictionary
280
     1
281
     1
  3
ACAD_MLATT
360
1D64
  3
ACAD_XREC_ROUNDTRIP
360
1D63
  0
DICTIONARY
  5
1BB4
330
287
100
AcDbDictionary
280
     1
281
     1
  3
ACAD_MLATT
360
1D66
  3
ACAD_XREC_ROUNDTRIP
360
1D65
  0
DICTIONARY
  5
1BB7
330
288
100
AcDbDictionary
280
     1
281
     1
  3
ACAD_MLATT
360
1D68
  3
ACAD_XREC_ROUNDTRIP
360
1D67
  0
DICTIONARY
  5
1BBA
330
289
100
AcDbDictionary
280
     1
281
     1
  3
ACAD_MLATT
360
1D6A
  3
ACAD_XREC_ROUNDTRIP
360
1D69
  0
DICTIONARY
  5
1DCB
330
370
100
AcDbDictionary
280
     1
281
     1
  3
ACAD_MTEXT_RT
360
1DCC
  0
DICTIONARY
  5
1BC1
330
37C
100
AcDbDictionary
280
     1
281
     1
  3
ACAD_MLATT
360
1D6C
  3
ACAD_XREC_ROUNDTRIP
360
1D6B
  0
DICTIONARY
  5
1BC4
330
37D
100
AcDbDictionary
280
     1
281
     1
  3
ACAD_MLATT
360
1D6E
  3
ACAD_XREC_ROUNDTRIP
360
1D6D
  0
DICTIONARY
  5
1BC7
330
37F
100
AcDbDictionary
280
     1
281
     1
  3
ACAD_MLATT
360
1D70
  3
ACAD_XREC_ROUNDTRIP
360
1D6F
  0
DICTIONARY
  5
1BCA
330
381
100
AcDbDictionary
280
     1
281
     1
  3
ACAD_MLATT
360
1D72
  3
ACAD_XREC_ROUNDTRIP
360
1D71
  0
DICTIONARY
  5
1BCD
330
382
100
AcDbDictionary
280
     1
281
     1
  3
ACAD_MLATT
360
1D74
  3
ACAD_XREC_ROUNDTRIP
360
1D73
  0
DICTIONARY
  5
1BD0
330
383
100
AcDbDictionary
280
     1
281
     1
  3
ACAD_MLATT
360
1D76
  3
ACAD_XREC_ROUNDTRIP
360
1D75
  0
DICTIONARY
  5
1BD3
330
384
100
AcDbDictionary
280
     1
281
     1
  3
ACAD_MLATT
360
1D78
  3
ACAD_XREC_ROUNDTRIP
360
1D77
  0
DICTIONARY
  5
1BD6
330
385
100
AcDbDictionary
280
     1
281
     1
  3
ACAD_MLATT
360
1D7A
  3
ACAD_XREC_ROUNDTRIP
360
1D79
  0
DICTIONARY
  5
1BD9
330
386
100
AcDbDictionary
280
     1
281
     1
  3
ACAD_MLATT
360
1D7C
  3
ACAD_XREC_ROUNDTRIP
360
1D7B
  0
DICTIONARY
  5
1BDC
330
387
100
AcDbDictionary
280
     1
281
     1
  3
ACAD_MLATT
360
1D7E
  3
ACAD_XREC_ROUNDTRIP
360
1D7D
  0
DICTIONARY
  5
1BDF
330
388
100
AcDbDictionary
280
     1
281
     1
  3
ACAD_MLATT
360
1D80
  3
ACAD_XREC_ROUNDTRIP
360
1D7F
  0
DICTIONARY
  5
1BE2
330
389
100
AcDbDictionary
280
     1
281
     1
  3
ACAD_MLATT
360
1D82
  3
ACAD_XREC_ROUNDTRIP
360
1D81
  0
DICTIONARY
  5
1BE5
330
38A
100
AcDbDictionary
280
     1
281
     1
  3
ACAD_MLATT
360
1D84
  3
ACAD_XREC_ROUNDTRIP
360
1D83
  0
DICTIONARY
  5
1BE8
330
38B
100
AcDbDictionary
280
     1
281
     1
  3
ACAD_MLATT
360
1D86
  3
ACAD_XREC_ROUNDTRIP
360
1D85
  0
DICTIONARY
  5
1BEB
330
38C
100
AcDbDictionary
280
     1
281
     1
  3
ACAD_MLATT
360
1D88
  3
ACAD_XREC_ROUNDTRIP
360
1D87
  0
DICTIONARY
  5
1BEE
330
38D
100
AcDbDictionary
280
     1
281
     1
  3
ACAD_MLATT
360
1D8A
  3
ACAD_XREC_ROUNDTRIP
360
1D89
  0
DICTIONARY
  5
1BF1
330
38E
100
AcDbDictionary
280
     1
281
     1
  3
ACAD_MLATT
360
1D8C
  3
ACAD_XREC_ROUNDTRIP
360
1D8B
  0
DICTIONARY
  5
1BF4
330
38F
100
AcDbDictionary
280
     1
281
     1
  3
ACAD_MLATT
360
1D8E
  3
ACAD_XREC_ROUNDTRIP
360
1D8D
  0
DICTIONARY
  5
1BF7
330
390
100
AcDbDictionary
280
     1
281
     1
  3
ACAD_MLATT
360
1D90
  3
ACAD_XREC_ROUNDTRIP
360
1D8F
  0
DICTIONARY
  5
1BFA
330
391
100
AcDbDictionary
280
     1
281
     1
  3
ACAD_MLATT
360
1D92
  3
ACAD_XREC_ROUNDTRIP
360
1D91
  0
DICTIONARY
  5
1BFD
330
392
100
AcDbDictionary
280
     1
281
     1
  3
ACAD_MLATT
360
1D94
  3
ACAD_XREC_ROUNDTRIP
360
1D93
  0
DICTIONARY
  5
1C00
330
393
100
AcDbDictionary
280
     1
281
     1
  3
ACAD_MLATT
360
1D96
  3
ACAD_XREC_ROUNDTRIP
360
1D95
  0
DICTIONARY
  5
1C03
330
394
100
AcDbDictionary
280
     1
281
     1
  3
ACAD_MLATT
360
1D98
  3
ACAD_XREC_ROUNDTRIP
360
1D97
  0
DICTIONARY
  5
1DCD
330
1503
100
AcDbDictionary
280
     1
281
     1
  3
ACAD_MTEXT_RT
360
1DCE
  0
DICTIONARY
  5
1DCF
330
18C5
100
AcDbDictionary
280
     1
281
     1
  3
ACAD_MTEXT_RT
360
1DD0
  0
DICTIONARY
  5
6E
102
{ACAD_REACTORS
330
C
102
}
330
C
100
AcDbDictionary
281
     1
  0
DICTIONARY
  5
D
102
{ACAD_REACTORS
330
C
102
}
330
C
100
AcDbDictionary
281
     1
  0
DICTIONARY
  5
6D
102
{ACAD_REACTORS
330
C
102
}
330
C
100
AcDbDictionary
281
     1
  3
Layout1
350
76
  3
Layout2
350
7E
  3
Model
350
7A
  0
DICTIONARY
  5
10
102
{ACAD_REACTORS
330
C
102
}
330
C
100
AcDbDictionary
281
     1
  3
ByBlock
350
19
  3
ByLayer
350
11
  3
Global
350
21
  0
DICTIONARY
  5
71
102
{ACAD_REACTORS
330
C
102
}
330
C
100
AcDbDictionary
281
     1
  3
Standard
350
72
  0
DICTIONARY
  5
6A
102
{ACAD_REACTORS
330
C
102
}
330
C
100
AcDbDictionary
281
     1
  3
Standard
350
6B
  0
DICTIONARY
  5
6C
102
{ACAD_REACTORS
330
C
102
}
330
C
100
AcDbDictionary
281
     1
  0
ACDBDICTIONARYWDFLT
  5
E
102
{ACAD_REACTORS
330
C
102
}
330
C
100
AcDbDictionary
281
     1
  3
Normal
350
F
100
AcDbDictionaryWithDefault
340
F
  0
DICTIONARY
  5
3D
102
{ACAD_REACTORS
330
C
102
}
330
C
100
AcDbDictionary
281
     1
  3
A0
350
3E
  3
A1
350
3F
  3
A2
350
40
  3
A3
350
41
  3
A4
350
42
  3
A5
350
43
  3
A6
350
44
  3
A7
350
45
  3
A8
350
46
  3
A9
350
47
  3
B0
350
48
  3
B1
350
49
  3
B2
350
4A
  3
B3
350
4B
  3
B4
350
4C
  3
B5
350
4D
  3
B6
350
4E
  3
B7
350
4F
  3
B8
350
50
  3
B9
350
51
  3
C0
350
52
  3
C1
350
53
  3
C2
350
54
  3
C3
350
55
  3
C4
350
56
  3
C5
350
57
  3
C6
350
58
  3
C7
350
59
  3
C8
350
5A
  3
C9
350
5B
  3
D0
350
5C
  3
D1
350
5D
  3
D2
350
5E
  0
DICTIONARY
  5
6F
102
{ACAD_REACTORS
330
C
102
}
330
C
100
AcDbDictionary
281
     1
  3
Standard
350
70
  0
DICTIONARY
  5
29
102
{ACAD_REACTORS
330
C
102
}
330
C
100
AcDbDictionary
281
     1
  3
2dWireframe
350
2F
  3
3D Hidden
350
31
  3
3dWireframe
350
30
  3
Basic
350
2E
  3
Brighten
350
35
  3
ColorChange
350
39
  3
Conceptual
350
32
  3
Dim
350
34
  3
EdgeColorOff
350
3C
  3
Facepattern
350
38
  3
Flat
350
2A
  3
FlatWithEdges
350
2B
  3
Gouraud
350
2C
  3
GouraudWithEdges
350
2D
  3
JitterOff
350
3A
  3
Linepattern
350
37
  3
OverhangOff
350
3B
  3
Realistic
350
33
  3
Thicken
350
36
  0
XRECORD
  5
1D99
102
{ACAD_REACTORS
330
C
102
}
330
C
100
AcDbXrecord
280
     1
 90
        1
330
70
330
27F
330
282
330
284
330
286
330
287
330
288
330
289
330
37C
330
37D
330
37F
330
381
330
382
330
383
330
384
330
385
330
386
330
387
330
388
330
389
330
38A
330
38B
330
38C
330
38D
330
38E
330
38F
330
390
330
391
330
392
330
393
330
394
  0
DICTIONARY
  5
1CAB
102
{ACAD_REACTORS
330
C
102
}
330
C
100
AcDbDictionary
281
     1
  3
CANNOSCALE
350
1CAF
  3
CMLEADERSTYLE
350
1CAD
  3
CTABLESTYLE
350
1CAC
  3
DIMASSOC
350
1CB6
  3
HIDETEXT
350
1CB5
  3
INDEXCTL
350
1CB4
  3
LAYEREVAL
350
1CB1
  3
LAYERNOTIFY
350
1CB2
  3
LIGHTINGUNITS
350
1CB0
  3
MSLTSCALE
350
1CAE
  3
SORTENTS
350
1CB3
  3
XCLIPFRAME
350
1D5B
  0
DICTIONARY
  5
1D1D
102
{ACAD_REACTORS
330
C
102
}
330
C
100
AcDbDictionary
281
     1
  3
AcmStdDictionary
350
1D29
  0
DICTIONARY
  5
1CC6
102
{ACAD_REACTORS
330
C
102
}
330
C
100
AcDbDictionary
281
     1
  0
DICTIONARY
  5
1D54
102
{ACAD_REACTORS
330
C
102
}
330
C
100
AcDbDictionary
281
     1
  0
XRECORD
  5
1D9A
102
{ACAD_REACTORS
330
C
102
}
330
C
100
AcDbXrecord
280
     1
  1
DWGPROPS COOKIE
  2

  3

  4
FRAMAL
  6

  7

  8
simzur
  9

300
Responsabile=
301
Società=
302
Categoria=
303
Numero parte=346G
304
Descrizione=
305
Progetto=
306
Progettista=FRAMAL
307
Ingegnere=
308
Autorità=
309
Centro gestione costi=
 40
0.0005855902777778
 41
2456041.392414537
 42
2456041.39348228
  1

 90
       16
300
Fornitore=
300
Stato utente=
300
Stato progetto=In corso
300
Verificato da=
300
Progett. approvata da=
300
Prod. approvata da=
  0
XRECORD
  5
1D5E
102
{ACAD_REACTORS
330
1BA8
102
}
330
1BA8
100
AcDbXrecord
280
     1
 70
     4
 70
     0
 70
     0
 40
1.0
  2
DESCRIZIONE_1
  1
Embedded Object
 10
-93.49119398589706
 20
5.505471063720221
 30
0.0
 40
2.489199936389923
 41
106.9783856763648
 46
0.0
 71
     1
 72
     5
  1
MODIFICA LUNGHEZZA DA 124 A 154
  7
Stile testo15
 73
     1
 44
1.0
  0
XRECORD
  5
1D5D
102
{ACAD_REACTORS
330
1BA8
102
}
330
1BA8
100
AcDbXrecord
280
     1
102
ACAD_MATT_HEIGHT
140
2.489199936389923
  0
XRECORD
  5
1D60
102
{ACAD_REACTORS
330
1BAB
102
}
330
1BAB
100
AcDbXrecord
280
     1
 70
     4
 70
     0
 70
     0
 40
1.0
  2
DESCRIZIONE_2
  1
Embedded Object
 10
-93.56890635983567
 20
1.937379052550589
 30
0.0
 40
2.489199936389923
 41
106.0389395913541
 46
0.0
 71
     1
 72
     5
  1

  7
Stile testo15
 73
     1
 44
1.0
  0
XRECORD
  5
1D5F
102
{ACAD_REACTORS
330
1BAB
102
}
330
1BAB
100
AcDbXrecord
280
     1
102
ACAD_MATT_HEIGHT
140
2.489199936389923
  0
XRECORD
  5
1D62
102
{ACAD_REACTORS
330
1BAE
102
}
330
1BAE
100
AcDbXrecord
280
     1
 70
     4
 70
     0
 70
     0
 40
1.0
  2
NR.REV
  1
Embedded Object
 10
17.21416714364988
 20
2.459098066293776
 30
0.0
 40
3.499999940395355
 41
5.795553091395007
 46
0.0
 71
     5
 72
     5
  1
\W0.9000;02
  7
Stile testo116
 73
     1
 44
1.0
  0
XRECORD
  5
1D61
102
{ACAD_REACTORS
330
1BAE
102
}
330
1BAE
100
AcDbXrecord
280
     1
102
ACAD_MATT_HEIGHT
140
3.499999940395355
  0
XRECORD
  5
1D64
102
{ACAD_REACTORS
330
1BB1
102
}
330
1BB1
100
AcDbXrecord
280
     1
 70
     4
 70
     0
 70
     0
 40
1.0
  2
DISEGNATO
  1
Embedded Object
 10
32.66124997243344
 20
4.468844212966427
 30
0.0
 40
2.489199936389923
 41
24.93167301252459
 46
0.0
 71
     5
 72
     5
  1
\W0.9000;FRIGHETTO
  7
Stile testo115
 73
     1
 44
1.0
  0
XRECORD
  5
1D63
102
{ACAD_REACTORS
330
1BB1
102
}
330
1BB1
100
AcDbXrecord
280
     1
102
ACAD_MATT_HEIGHT
140
2.489199936389923
  0
XRECORD
  5
1D66
102
{ACAD_REACTORS
330
1BB4
102
}
330
1BB4
100
AcDbXrecord
280
     1
 70
     4
 70
     0
 70
     0
 40
1.0
  2
DATA
  1
Embedded Object
 10
32.60244885683786
 20
0.4703683121771185
 30
0.0
 40
2.489199936389923
 41
24.99047412812017
 46
0.0
 71
     5
 72
     5
  1
25/07/02
  7
Stile testo15
 73
     1
 44
1.0
  0
XRECORD
  5
1D65
102
{ACAD_REACTORS
330
1BB4
102
}
330
1BB4
100
AcDbXrecord
280
     1
102
ACAD_MATT_HEIGHT
140
2.489199936389923
  0
XRECORD
  5
1D68
102
{ACAD_REACTORS
330
1BB7
102
}
330
1BB7
100
AcDbXrecord
280
     1
 70
     4
 70
     0
 70
     0
 40
1.0
  2
DATA
  1
Embedded Object
 10
57.6076232638568
 20
0.4850685912241559
 30
0.0
 40
2.489199936389923
 41
24.96107357032237
 46
0.0
 71
     5
 72
     5
  1
25/07/02
  7
Stile testo15
 73
     1
 44
1.0
  0
XRECORD
  5
1D67
102
{ACAD_REACTORS
330
1BB7
102
}
330
1BB7
100
AcDbXrecord
280
     1
102
ACAD_MATT_HEIGHT
140
2.489199936389923
  0
XRECORD
  5
1D6A
102
{ACAD_REACTORS
330
1BBA
102
}
330
1BBA
100
AcDbXrecord
280
     1
 70
     4
 70
     0
 70
     0
 40
1.0
  2
DATA
  1
Embedded Object
 10
82.5539965552803
 20
0.4703683121771541
 30
0.0
 40
2.489199936389923
 41
24.93167301252459
 46
0.0
 71
     5
 72
     5
  1
25/07/02
  7
Stile testo15
 73
     1
 44
1.0
  0
XRECORD
  5
1D69
102
{ACAD_REACTORS
330
1BBA
102
}
330
1BBA
100
AcDbXrecord
280
     1
102
ACAD_MATT_HEIGHT
140
2.489199936389923
  0
XRECORD
  5
1DCC
102
{ACAD_REACTORS
330
1DCB
102
}
330
1DCB
100
AcDbXrecord
280
     1
 40
567138.0
  1
\fArial|b0|i0;\H2.0066;Via Cassola , 64\P36027 Rosà (VI)\PITALY\PTel.0424/585111\PFax.0424/533417\Pwww.comunello.com
  0
XRECORD
  5
1D6C
102
{ACAD_REACTORS
330
1BC1
102
}
330
1BC1
100
AcDbXrecord
280
     1
 70
     4
 70
     0
 70
     0
 40
1.0
  2
Denominazione__1
  1
Embedded Object
 10
11.0
 20
66.5
 30
0.0
 40
2.006599903106689
 41
71.00000000000001
 46
0.0
 71
     1
 72
     5
  1
INCONTRO
  7
Stile testo6
 73
     1
 44
1.0
  0
XRECORD
  5
1D6B
102
{ACAD_REACTORS
330
1BC1
102
}
330
1BC1
100
AcDbXrecord
280
     1
102
ACAD_MATT_HEIGHT
140
2.006599903106689
  0
XRECORD
  5
1D6E
102
{ACAD_REACTORS
330
1BC4
102
}
330
1BC4
100
AcDbXrecord
280
     1
 70
     4
 70
     0
 70
     0
 40
1.0
  2
Denominazione_2
  1
Embedded Object
 10
11.0
 20
63.0
 30
0.0
 40
2.006599903106689
 41
71.00000000000001
 46
0.0
 71
     1
 72
     5
  1

  7
Stile testo6
 73
     1
 44
1.0
  0
XRECORD
  5
1D6D
102
{ACAD_REACTORS
330
1BC4
102
}
330
1BC4
100
AcDbXrecord
280
     1
102
ACAD_MATT_HEIGHT
140
2.006599903106689
  0
XRECORD
  5
1D70
102
{ACAD_REACTORS
330
1BC7
102
}
330
1BC7
100
AcDbXrecord
280
     1
 70
     4
 70
     0
 70
     0
 40
1.0
  2
CODICE_DISEGNO
  1
Embedded Object
 10
97.25000000000001
 20
63.50000000000001
 30
0.0
 40
3.50519984960556
 41
28.5
 46
0.0
 71
     5
 72
     5
  1
\W0.7500;CGS-346-G
  7
Stile testo135
 73
     1
 44
1.0
  0
XRECORD
  5
1D6F
102
{ACAD_REACTORS
330
1BC7
102
}
330
1BC7
100
AcDbXrecord
280
     1
102
ACAD_MATT_HEIGHT
140
3.50519984960556
  0
XRECORD
  5
1D72
102
{ACAD_REACTORS
330
1BCA
102
}
330
1BCA
100
AcDbXrecord
280
     1
 70
     4
 70
     0
 70
     0
 40
1.0
  2
Materiale_1
  1
Embedded Object
 10
144.75
 20
65.24632405268551
 30
0.0
 40
2.006599903106689
 41
63.50000000000001
 46
0.0
 71
     5
 72
     5
  1

  7
Stile testo6
 73
     1
 44
1.0
  0
XRECORD
  5
1D71
102
{ACAD_REACTORS
330
1BCA
102
}
330
1BCA
100
AcDbXrecord
280
     1
102
ACAD_MATT_HEIGHT
140
2.006599903106689
  0
XRECORD
  5
1D74
102
{ACAD_REACTORS
330
1BCD
102
}
330
1BCD
100
AcDbXrecord
280
     1
 70
     4
 70
     0
 70
     0
 40
1.0
  2
Materiale_2
  1
Embedded Object
 10
144.809961390817
 20
61.5
 30
0.0
 40
2.006599903106689
 41
65.0
 46
0.0
 71
     5
 72
     5
  1

  7
Stile testo6
 73
     1
 44
1.0
  0
XRECORD
  5
1D73
102
{ACAD_REACTORS
330
1BCD
102
}
330
1BCD
100
AcDbXrecord
280
     1
102
ACAD_MATT_HEIGHT
140
2.006599903106689
  0
XRECORD
  5
1D76
102
{ACAD_REACTORS
330
1BD0
102
}
330
1BD0
100
AcDbXrecord
280
     1
 70
     4
 70
     0
 70
     0
 40
1.0
  2
CODICE_MATERIALE
  1
Embedded Object
 10
188.5
 20
63.5
 30
0.0
 40
2.006599903106689
 41
23.00000000000001
 46
0.0
 71
     5
 72
     5
  1

  7
Stile testo6
 73
     1
 44
1.0
  0
XRECORD
  5
1D75
102
{ACAD_REACTORS
330
1BD0
102
}
330
1BD0
100
AcDbXrecord
280
     1
102
ACAD_MATT_HEIGHT
140
2.006599903106689
  0
XRECORD
  5
1D78
102
{ACAD_REACTORS
330
1BD3
102
}
330
1BD3
100
AcDbXrecord
280
     1
 70
     4
 70
     0
 70
     0
 40
1.0
  2
PESO_UNITARIO_KG
  1
Embedded Object
 10
97.05039695754834
 20
48.4920608646265
 30
0.0
 40
2.489199936389923
 41
26.99999999999999
 46
0.0
 71
     5
 72
     5
  1
3.5
  7
Stile testo15
 73
     1
 44
1.0
  0
XRECORD
  5
1D77
102
{ACAD_REACTORS
330
1BD3
102
}
330
1BD3
100
AcDbXrecord
280
     1
102
ACAD_MATT_HEIGHT
140
2.489199936389923
  0
XRECORD
  5
1D7A
102
{ACAD_REACTORS
330
1BD6
102
}
330
1BD6
100
AcDbXrecord
280
     1
 70
     4
 70
     0
 70
     0
 40
1.0
  2
TRATTAMENTO_1
  1
Embedded Object
 10
132.6521050609213
 20
53.48089266404504
 30
0.0
 40
2.489199936389923
 41
46.5
 46
0.0
 71
     1
 72
     5
  1
001 ZINCATURA
  7
Stile testo15
 73
     1
 44
1.0
  0
XRECORD
  5
1D79
102
{ACAD_REACTORS
330
1BD6
102
}
330
1BD6
100
AcDbXrecord
280
     1
102
ACAD_MATT_HEIGHT
140
2.489199936389923
  0
XRECORD
  5
1D7C
102
{ACAD_REACTORS
330
1BD9
102
}
330
1BD9
100
AcDbXrecord
280
     1
 70
     4
 70
     0
 70
     0
 40
1.0
  2
TRATTAMENTO_2
  1
Embedded Object
 10
113.0632687693352
 20
49.98769965437094
 30
0.0
 40
2.489199936389923
 41
63.0
 46
0.0
 71
     1
 72
     5
  1

  7
Stile testo15
 73
     1
 44
1.0
  0
XRECORD
  5
1D7B
102
{ACAD_REACTORS
330
1BD9
102
}
330
1BD9
100
AcDbXrecord
280
     1
102
ACAD_MATT_HEIGHT
140
2.489199936389923
  0
XRECORD
  5
1D7E
102
{ACAD_REACTORS
330
1BDC
102
}
330
1BDC
100
AcDbXrecord
280
     1
 70
     4
 70
     0
 70
     0
 40
1.0
  2
COEFFICIENTE_D'IMPEGO
  1
Embedded Object
 10
188.5523258958931
 20
48.62644459325678
 30
0.0
 40
2.489199936389923
 41
21.00000000000001
 46
0.0
 71
     5
 72
     5
  1

  7
Stile testo15
 73
     1
 44
1.0
  0
XRECORD
  5
1D7D
102
{ACAD_REACTORS
330
1BDC
102
}
330
1BDC
100
AcDbXrecord
280
     1
102
ACAD_MATT_HEIGHT
140
2.489199936389923
  0
XRECORD
  5
1D80
102
{ACAD_REACTORS
330
1BDF
102
}
330
1BDF
100
AcDbXrecord
280
     1
 70
     4
 70
     0
 70
     0
 40
1.0
  2
SCALA
  1
Embedded Object
 10
97.25000000000001
 20
41.0
 30
0.0
 40
2.489199936389923
 41
26.5
 46
0.0
 71
     5
 72
     5
  1
1 : 1
  7
Stile testo15
 73
     1
 44
1.0
  0
XRECORD
  5
1D7F
102
{ACAD_REACTORS
330
1BDF
102
}
330
1BDF
100
AcDbXrecord
280
     1
102
ACAD_MATT_HEIGHT
140
2.489199936389923
  0
XRECORD
  5
1D82
102
{ACAD_REACTORS
330
1BE2
102
}
330
1BE2
100
AcDbXrecord
280
     1
 70
     4
 70
     0
 70
     0
 40
1.0
  2
FOGLIO
  1
Embedded Object
 10
119.1976741041069
 20
40.40294218049127
 30
0.0
 40
2.489199936389923
 41
13.50000000000001
 46
0.0
 71
     5
 72
     5
  1
A 2
  7
Stile testo15
 73
     1
 44
1.0
  0
XRECORD
  5
1D81
102
{ACAD_REACTORS
330
1BE2
102
}
330
1BE2
100
AcDbXrecord
280
     1
102
ACAD_MATT_HEIGHT
140
2.489199936389923
  0
XRECORD
  5
1D84
102
{ACAD_REACTORS
330
1BE5
102
}
330
1BE5
100
AcDbXrecord
280
     1
 70
     4
 70
     0
 70
     0
 40
1.0
  2
DISEGNATO
  1
Embedded Object
 10
127.5
 20
41.5
 30
0.0
 40
2.489199936389923
 41
31.5
 46
0.0
 71
     1
 72
     5
  1
FRIGHETTO M.
  7
Stile testo15
 73
     1
 44
1.0
  0
XRECORD
  5
1D83
102
{ACAD_REACTORS
330
1BE5
102
}
330
1BE5
100
AcDbXrecord
280
     1
102
ACAD_MATT_HEIGHT
140
2.489199936389923
  0
XRECORD
  5
1D86
102
{ACAD_REACTORS
330
1BE8
102
}
330
1BE8
100
AcDbXrecord
280
     1
 70
     4
 70
     0
 70
     0
 40
1.0
  2
DATA
  1
Embedded Object
 10
168.25
 20
40.5
 30
0.0
 40
2.489199936389923
 41
15.5
 46
0.0
 71
     5
 72
     5
  1
17/09/99
  7
Stile testo15
 73
     1
 44
1.0
  0
XRECORD
  5
1D85
102
{ACAD_REACTORS
330
1BE8
102
}
330
1BE8
100
AcDbXrecord
280
     1
102
ACAD_MATT_HEIGHT
140
2.489199936389923
  0
XRECORD
  5
1D88
102
{ACAD_REACTORS
330
1BEB
102
}
330
1BEB
100
AcDbXrecord
280
     1
 70
     4
 70
     0
 70
     0
 40
1.0
  2
DATA
  1
Embedded Object
 10
168.25
 20
32.75
 30
0.0
 40
2.489199936389923
 41
15.5
 46
0.0
 71
     5
 72
     5
  1

  7
Stile testo15
 73
     1
 44
1.0
  0
XRECORD
  5
1D87
102
{ACAD_REACTORS
330
1BEB
102
}
330
1BEB
100
AcDbXrecord
280
     1
102
ACAD_MATT_HEIGHT
140
2.489199936389923
  0
XRECORD
  5
1D8A
102
{ACAD_REACTORS
330
1BEE
102
}
330
1BEE
100
AcDbXrecord
280
     1
 70
     4
 70
     0
 70
     0
 40
1.0
  2
DATA
  1
Embedded Object
 10
168.25
 20
24.75
 30
0.0
 40
2.489199936389923
 41
15.5
 46
0.0
 71
     5
 72
     5
  1

  7
Stile testo15
 73
     1
 44
1.0
  0
XRECORD
  5
1D89
102
{ACAD_REACTORS
330
1BEE
102
}
330
1BEE
100
AcDbXrecord
280
     1
102
ACAD_MATT_HEIGHT
140
2.489199936389923
  0
XRECORD
  5
1D8C
102
{ACAD_REACTORS
330
1BF1
102
}
330
1BF1
100
AcDbXrecord
280
     1
 70
     4
 70
     0
 70
     0
 40
1.0
  2
NUMERO_ARTICOLO
  1
Embedded Object
 10
137.8158294861797
 20
21.53904977834278
 30
0.0
 40
2.489199936389923
 41
63.00000000000003
 46
0.0
 71
     1
 72
     5
  1
CGS-346-G
  7
Stile testo15
 73
     1
 44
1.0
  0
XRECORD
  5
1D8B
102
{ACAD_REACTORS
330
1BF1
102
}
330
1BF1
100
AcDbXrecord
280
     1
102
ACAD_MATT_HEIGHT
140
2.489199936389923
  0
XRECORD
  5
1D8E
102
{ACAD_REACTORS
330
1BF4
102
}
330
1BF4
100
AcDbXrecord
280
     1
 70
     4
 70
     0
 70
     0
 40
1.0
  2
NUMERO_ARTICOLO
  1
Embedded Object
 10
127.1848152468796
 20
17.63978885077316
 30
0.0
 40
2.489199936389923
 41
71.00000000000001
 46
0.0
 71
     1
 72
     5
  1

  7
Stile testo15
 73
     1
 44
1.0
  0
XRECORD
  5
1D8D
102
{ACAD_REACTORS
330
1BF4
102
}
330
1BF4
100
AcDbXrecord
280
     1
102
ACAD_MATT_HEIGHT
140
2.489199936389923
  0
XRECORD
  5
1D90
102
{ACAD_REACTORS
330
1BF7
102
}
330
1BF7
100
AcDbXrecord
280
     1
 70
     4
 70
     0
 70
     0
 40
1.0
  2
ATTREZZAT._1
  1
Embedded Object
 10
188.5
 20
40.5
 30
0.0
 40
2.489199936389923
 41
21.00000000000001
 46
0.0
 71
     5
 72
     5
  1

  7
Stile testo15
 73
     1
 44
1.0
  0
XRECORD
  5
1D8F
102
{ACAD_REACTORS
330
1BF7
102
}
330
1BF7
100
AcDbXrecord
280
     1
102
ACAD_MATT_HEIGHT
140
2.489199936389923
  0
XRECORD
  5
1D92
102
{ACAD_REACTORS
330
1BFA
102
}
330
1BFA
100
AcDbXrecord
280
     1
 70
     4
 70
     0
 70
     0
 40
1.0
  2
ATTREZZAT.2
  1
Embedded Object
 10
188.5
 20
32.5
 30
0.0
 40
2.489199936389923
 41
21.00000000000001
 46
0.0
 71
     5
 72
     5
  1

  7
Stile testo15
 73
     1
 44
1.0
  0
XRECORD
  5
1D91
102
{ACAD_REACTORS
330
1BFA
102
}
330
1BFA
100
AcDbXrecord
280
     1
102
ACAD_MATT_HEIGHT
140
2.489199936389923
  0
XRECORD
  5
1D94
102
{ACAD_REACTORS
330
1BFD
102
}
330
1BFD
100
AcDbXrecord
280
     1
 70
     4
 70
     0
 70
     0
 40
1.0
  2
ATTREZZAT.3
  1
Embedded Object
 10
188.5
 20
24.5
 30
0.0
 40
2.489199936389923
 41
21.00000000000001
 46
0.0
 71
     5
 72
     5
  1

  7
Stile testo15
 73
     1
 44
1.0
  0
XRECORD
  5
1D93
102
{ACAD_REACTORS
330
1BFD
102
}
330
1BFD
100
AcDbXrecord
280
     1
102
ACAD_MATT_HEIGHT
140
2.489199936389923
  0
XRECORD
  5
1D96
102
{ACAD_REACTORS
330
1C00
102
}
330
1C00
100
AcDbXrecord
280
     1
 70
     4
 70
     0
 70
     0
 40
1.0
  2
SOSTITUISCE_IL
  1
Embedded Object
 10
22.0
 20
41.0
 30
0.0
 40
2.489199936389923
 41
22.0
 46
0.0
 71
     5
 72
     5
  1

  7
Stile testo15
 73
     1
 44
1.0
  0
XRECORD
  5
1D95
102
{ACAD_REACTORS
330
1C00
102
}
330
1C00
100
AcDbXrecord
280
     1
102
ACAD_MATT_HEIGHT
140
2.489199936389923
  0
XRECORD
  5
1D98
102
{ACAD_REACTORS
330
1C03
102
}
330
1C03
100
AcDbXrecord
280
     1
 70
     4
 70
     0
 70
     0
 40
1.0
  2
SOSTITUITO_DAL
  1
Embedded Object
 10
46.5
 20
41.0
 30
0.0
 40
2.489199936389923
 41
22.0
 46
0.0
 71
     5
 72
     5
  1

  7
Stile testo15
 73
     1
 44
1.0
  0
XRECORD
  5
1D97
102
{ACAD_REACTORS
330
1C03
102
}
330
1C03
100
AcDbXrecord
280
     1
102
ACAD_MATT_HEIGHT
140
2.489199936389923
  0
XRECORD
  5
1DCE
102
{ACAD_REACTORS
330
1DCD
102
}
330
1DCD
100
AcDbXrecord
280
     1
 40
5283.0
  1
\A1;30°
  0
XRECORD
  5
1DD0
102
{ACAD_REACTORS
330
1DCF
102
}
330
1DCF
100
AcDbXrecord
280
     1
 40
5283.0
  1
\A1;30°
  0
LAYOUT
  5
76
102
{ACAD_XDICTIONARY
360
1DC5
102
}
102
{ACAD_REACTORS
330
6D
102
}
330
6D
100
AcDbPlotSettings
  1

  2

  4

  6

 40
0.0
 41
0.0
 42
0.0
 43
0.0
 44
0.0
 45
0.0
 46
0.0
 47
0.0
 48
0.0
 49
0.0
140
0.0
141
0.0
142
1.0
143
1.0
 70
   688
 72
     0
 73
     0
 74
     5
  7

 75
    16
147
1.0
148
0.0
149
0.0
100
AcDbLayout
  1
Layout1
 70
     1
 71
     1
 10
0.0
 20
0.0
 11
594.0
 21
420.0
 12
0.0
 22
0.0
 32
0.0
 14
0.0
 24
0.0
 34
0.0
 15
594.0
 25
420.0
 35
0.0
146
0.0
 13
0.0
 23
0.0
 33
0.0
 16
1.0
 26
0.0
 36
0.0
 17
0.0
 27
1.0
 37
0.0
 76
     0
330
73
  0
LAYOUT
  5
7E
102
{ACAD_XDICTIONARY
360
1DC9
102
}
102
{ACAD_REACTORS
330
6D
102
}
330
6D
100
AcDbPlotSettings
  1

  2

  4

  6

 40
0.0
 41
0.0
 42
0.0
 43
0.0
 44
0.0
 45
0.0
 46
0.0
 47
0.0
 48
0.0
 49
0.0
140
0.0
141
0.0
142
1.0
143
1.0
 70
   688
 72
     0
 73
     0
 74
     5
  7

 75
    16
147
1.0
148
0.0
149
0.0
100
AcDbLayout
  1
Layout2
 70
     1
 71
     2
 10
0.0
 20
0.0
 11
12.0
 21
9.0
 12
0.0
 22
0.0
 32
0.0
 14
0.0
 24
0.0
 34
0.0
 15
0.0
 25
0.0
 35
0.0
146
0.0
 13
0.0
 23
0.0
 33
0.0
 16
1.0
 26
0.0
 36
0.0
 17
0.0
 27
1.0
 37
0.0
 76
     0
330
7B
  0
LAYOUT
  5
7A
102
{ACAD_XDICTIONARY
360
1DC7
102
}
102
{ACAD_REACTORS
330
6D
102
}
330
6D
100
AcDbPlotSettings
  1

  2

  4

  6

 40
0.0
 41
0.0
 42
0.0
 43
0.0
 44
0.0
 45
0.0
 46
0.0
 47
0.0
 48
0.0
 49
0.0
140
0.0
141
0.0
142
1.0
143
1.0
 70
  1712
 72
     0
 73
     0
 74
     0
  7

 75
     0
147
1.0
148
0.0
149
0.0
100
AcDbLayout
  1
Model
 70
     1
 71
     0
 10
0.0
 20
0.0
 11
12.0
 21
9.0
 12
0.0
 22
0.0
 32
0.0
 14
0.0
 24
0.0
 34
0.0
 15
0.0
 25
0.0
 35
0.0
146
0.0
 13
0.0
 23
0.0
 33
0.0
 16
1.0
 26
0.0
 36
0.0
 17
0.0
 27
1.0
 37
0.0
 76
     0
330
77
331
62
  0
MATERIAL
  5
19
102
{ACAD_XDICTIONARY
360
1A
102
}
102
{ACAD_REACTORS
330
10
102
}
330
10
100
AcDbMaterial
  1
ByBlock
 72
     0
 43
0.0208333333333333
 43
0.0
 43
0.0
 43
0.0
 43
0.0
 43
0.0208333333333333
 43
0.0
 43
0.0
 43
0.0
 43
0.0
 43
1.0
 43
0.0
 43
0.0
 43
0.0
 43
0.0
 43
1.0
 77
     0
 47
0.0208333333333333
 47
0.0
 47
0.0
 47
0.0
 47
0.0
 47
0.0208333333333333
 47
0.0
 47
0.0
 47
0.0
 47
0.0
 47
1.0
 47
0.0
 47
0.0
 47
0.0
 47
0.0
 47
1.0
171
     0
 49
0.0208333333333333
 49
0.0
 49
0.0
 49
0.0
 49
0.0
 49
0.0208333333333333
 49
0.0
 49
0.0
 49
0.0
 49
0.0
 49
1.0
 49
0.0
 49
0.0
 49
0.0
 49
0.0
 49
1.0
175
     0
142
0.0208333333333333
142
0.0
142
0.0
142
0.0
142
0.0
142
0.0208333333333333
142
0.0
142
0.0
142
0.0
142
0.0
142
1.0
142
0.0
142
0.0
142
0.0
142
0.0
142
1.0
179
     0
144
0.0208333333333333
144
0.0
144
0.0
144
0.0
144
0.0
144
0.0208333333333333
144
0.0
144
0.0
144
0.0
144
0.0
144
1.0
144
0.0
144
0.0
144
0.0
144
0.0
144
1.0
147
0.0208333333333333
147
0.0
147
0.0
147
0.0
147
0.0
147
0.0208333333333333
147
0.0
147
0.0
147
0.0
147
0.0
147
1.0
147
0.0
147
0.0
147
0.0
147
0.0
147
1.0
  0
MATERIAL
  5
11
102
{ACAD_XDICTIONARY
360
12
102
}
102
{ACAD_REACTORS
330
10
102
}
330
10
100
AcDbMaterial
  1
ByLayer
 72
     0
 43
0.0208333333333333
 43
0.0
 43
0.0
 43
0.0
 43
0.0
 43
0.0208333333333333
 43
0.0
 43
0.0
 43
0.0
 43
0.0
 43
1.0
 43
0.0
 43
0.0
 43
0.0
 43
0.0
 43
1.0
 77
     0
 47
0.0208333333333333
 47
0.0
 47
0.0
 47
0.0
 47
0.0
 47
0.0208333333333333
 47
0.0
 47
0.0
 47
0.0
 47
0.0
 47
1.0
 47
0.0
 47
0.0
 47
0.0
 47
0.0
 47
1.0
171
     0
 49
0.0208333333333333
 49
0.0
 49
0.0
 49
0.0
 49
0.0
 49
0.0208333333333333
 49
0.0
 49
0.0
 49
0.0
 49
0.0
 49
1.0
 49
0.0
 49
0.0
 49
0.0
 49
0.0
 49
1.0
175
     0
142
0.0208333333333333
142
0.0
142
0.0
142
0.0
142
0.0
142
0.0208333333333333
142
0.0
142
0.0
142
0.0
142
0.0
142
1.0
142
0.0
142
0.0
142
0.0
142
0.0
142
1.0
179
     0
144
0.0208333333333333
144
0.0
144
0.0
144
0.0
144
0.0
144
0.0208333333333333
144
0.0
144
0.0
144
0.0
144
0.0
144
1.0
144
0.0
144
0.0
144
0.0
144
0.0
144
1.0
147
0.0208333333333333
147
0.0
147
0.0
147
0.0
147
0.0
147
0.0208333333333333
147
0.0
147
0.0
147
0.0
147
0.0
147
1.0
147
0.0
147
0.0
147
0.0
147
0.0
147
1.0
  0
MATERIAL
  5
21
102
{ACAD_XDICTIONARY
360
22
102
}
102
{ACAD_REACTORS
330
10
102
}
330
10
100
AcDbMaterial
  1
Global
 72
     0
 43
0.0208333333333333
 43
0.0
 43
0.0
 43
0.0
 43
0.0
 43
0.0208333333333333
 43
0.0
 43
0.0
 43
0.0
 43
0.0
 43
1.0
 43
0.0
 43
0.0
 43
0.0
 43
0.0
 43
1.0
 77
     0
 47
0.0208333333333333
 47
0.0
 47
0.0
 47
0.0
 47
0.0
 47
0.0208333333333333
 47
0.0
 47
0.0
 47
0.0
 47
0.0
 47
1.0
 47
0.0
 47
0.0
 47
0.0
 47
0.0
 47
1.0
171
     0
 49
0.0208333333333333
 49
0.0
 49
0.0
 49
0.0
 49
0.0
 49
0.0208333333333333
 49
0.0
 49
0.0
 49
0.0
 49
0.0
 49
1.0
 49
0.0
 49
0.0
 49
0.0
 49
0.0
 49
1.0
175
     0
142
0.0208333333333333
142
0.0
142
0.0
142
0.0
142
0.0
142
0.0208333333333333
142
0.0
142
0.0
142
0.0
142
0.0
142
1.0
142
0.0
142
0.0
142
0.0
142
0.0
142
1.0
179
     0
144
0.0208333333333333
144
0.0
144
0.0
144
0.0
144
0.0
144
0.0208333333333333
144
0.0
144
0.0
144
0.0
144
0.0
144
1.0
144
0.0
144
0.0
144
0.0
144
0.0
144
1.0
147
0.0208333333333333
147
0.0
147
0.0
147
0.0
147
0.0
147
0.0208333333333333
147
0.0
147
0.0
147
0.0
147
0.0
147
1.0
147
0.0
147
0.0
147
0.0
147
0.0
147
1.0
  0
MLEADERSTYLE
  5
72
102
{ACAD_REACTORS
330
71
102
}
330
71
100
AcDbMLeaderStyle
170
     2
171
     1
172
     0
 90
        2
 40
0.0
 41
0.0
173
     1
 91
-1056964608
340
66
 92
       -2
290
     1
 42
0.09
291
     1
 43
0.36
  3
Standard
 44
0.18
300

342
60
174
     1
178
     6
175
     1
176
     0
 93
-1056964608
 45
0.18
292
     0
297
     0
 46
0.18
 94
-1056964608
 47
1.0
 49
1.0
140
1.0
293
     1
141
0.0
294
     1
177
     0
142
1.0
295
     0
296
     0
143
0.125
1001
ACAD_MLEADERVER
1070
     2
  0
MLINESTYLE
  5
6B
102
{ACAD_REACTORS
330
6A
102
}
330
6A
100
AcDbMlineStyle
  2
STANDARD
 70
     0
  3

 62
   256
 51
90.0
 52
90.0
 71
     2
 49
0.5
 62
   256
  6
BYLAYER
 49
-0.5
 62
   256
  6
BYLAYER
  0
ACDBPLACEHOLDER
  5
F
102
{ACAD_REACTORS
330
E
102
}
330
E
  0
SCALE
  5
3E
102
{ACAD_REACTORS
330
3D
102
}
330
3D
100
AcDbScale
 70
     0
300
1:1
140
1.0
141
1.0
290
     1
  0
SCALE
  5
3F
102
{ACAD_REACTORS
330
3D
102
}
330
3D
100
AcDbScale
 70
     0
300
1:2
140
1.0
141
2.0
290
     0
  0
SCALE
  5
40
102
{ACAD_REACTORS
330
3D
102
}
330
3D
100
AcDbScale
 70
     0
300
1:4
140
1.0
141
4.0
290
     0
  0
SCALE
  5
41
102
{ACAD_REACTORS
330
3D
102
}
330
3D
100
AcDbScale
 70
     0
300
1:5
140
1.0
141
5.0
290
     0
  0
SCALE
  5
42
102
{ACAD_REACTORS
330
3D
102
}
330
3D
100
AcDbScale
 70
     0
300
1:8
140
1.0
141
8.0
290
     0
  0
SCALE
  5
43
102
{ACAD_REACTORS
330
3D
102
}
330
3D
100
AcDbScale
 70
     0
300
1:10
140
1.0
141
10.0
290
     0
  0
SCALE
  5
44
102
{ACAD_REACTORS
330
3D
102
}
330
3D
100
AcDbScale
 70
     0
300
1:16
140
1.0
141
16.0
290
     0
  0
SCALE
  5
45
102
{ACAD_REACTORS
330
3D
102
}
330
3D
100
AcDbScale
 70
     0
300
1:20
140
1.0
141
20.0
290
     0
  0
SCALE
  5
46
102
{ACAD_REACTORS
330
3D
102
}
330
3D
100
AcDbScale
 70
     0
300
1:30
140
1.0
141
30.0
290
     0
  0
SCALE
  5
47
102
{ACAD_REACTORS
330
3D
102
}
330
3D
100
AcDbScale
 70
     0
300
1:40
140
1.0
141
40.0
290
     0
  0
SCALE
  5
48
102
{ACAD_REACTORS
330
3D
102
}
330
3D
100
AcDbScale
 70
     0
300
1:50
140
1.0
141
50.0
290
     0
  0
SCALE
  5
49
102
{ACAD_REACTORS
330
3D
102
}
330
3D
100
AcDbScale
 70
     0
300
1:100
140
1.0
141
100.0
290
     0
  0
SCALE
  5
4A
102
{ACAD_REACTORS
330
3D
102
}
330
3D
100
AcDbScale
 70
     0
300
2:1
140
2.0
141
1.0
290
     0
  0
SCALE
  5
4B
102
{ACAD_REACTORS
330
3D
102
}
330
3D
100
AcDbScale
 70
     0
300
4:1
140
4.0
141
1.0
290
     0
  0
SCALE
  5
4C
102
{ACAD_REACTORS
330
3D
102
}
330
3D
100
AcDbScale
 70
     0
300
8:1
140
8.0
141
1.0
290
     0
  0
SCALE
  5
4D
102
{ACAD_REACTORS
330
3D
102
}
330
3D
100
AcDbScale
 70
     0
300
10:1
140
10.0
141
1.0
290
     0
  0
SCALE
  5
4E
102
{ACAD_REACTORS
330
3D
102
}
330
3D
100
AcDbScale
 70
     0
300
100:1
140
100.0
141
1.0
290
     0
  0
SCALE
  5
4F
102
{ACAD_REACTORS
330
3D
102
}
330
3D
100
AcDbScale
 70
     0
300
1/128" = 1'-0"
140
0.0078125
141
12.0
290
     0
  0
SCALE
  5
50
102
{ACAD_REACTORS
330
3D
102
}
330
3D
100
AcDbScale
 70
     0
300
1/64" = 1'-0"
140
0.015625
141
12.0
290
     0
  0
SCALE
  5
51
102
{ACAD_REACTORS
330
3D
102
}
330
3D
100
AcDbScale
 70
     0
300
1/32" = 1'-0"
140
0.03125
141
12.0
290
     0
  0
SCALE
  5
52
102
{ACAD_REACTORS
330
3D
102
}
330
3D
100
AcDbScale
 70
     0
300
1/16" = 1'-0"
140
0.0625
141
12.0
290
     0
  0
SCALE
  5
53
102
{ACAD_REACTORS
330
3D
102
}
330
3D
100
AcDbScale
 70
     0
300
3/32" = 1'-0"
140
0.09375
141
12.0
290
     0
  0
SCALE
  5
54
102
{ACAD_REACTORS
330
3D
102
}
330
3D
100
AcDbScale
 70
     0
300
1/8" = 1'-0"
140
0.125
141
12.0
290
     0
  0
SCALE
  5
55
102
{ACAD_REACTORS
330
3D
102
}
330
3D
100
AcDbScale
 70
     0
300
3/16" = 1'-0"
140
0.1875
141
12.0
290
     0
  0
SCALE
  5
56
102
{ACAD_REACTORS
330
3D
102
}
330
3D
100
AcDbScale
 70
     0
300
1/4" = 1'-0"
140
0.25
141
12.0
290
     0
  0
SCALE
  5
57
102
{ACAD_REACTORS
330
3D
102
}
330
3D
100
AcDbScale
 70
     0
300
3/8" = 1'-0"
140
0.375
141
12.0
290
     0
  0
SCALE
  5
58
102
{ACAD_REACTORS
330
3D
102
}
330
3D
100
AcDbScale
 70
     0
300
1/2" = 1'-0"
140
0.5
141
12.0
290
     0
  0
SCALE
  5
59
102
{ACAD_REACTORS
330
3D
102
}
330
3D
100
AcDbScale
 70
     0
300
3/4" = 1'-0"
140
0.75
141
12.0
290
     0
  0
SCALE
  5
5A
102
{ACAD_REACTORS
330
3D
102
}
330
3D
100
AcDbScale
 70
     0
300
1" = 1'-0"
140
1.0
141
12.0
290
     0
  0
SCALE
  5
5B
102
{ACAD_REACTORS
330
3D
102
}
330
3D
100
AcDbScale
 70
     0
300
1-1/2" = 1'-0"
140
1.5
141
12.0
290
     0
  0
SCALE
  5
5C
102
{ACAD_REACTORS
330
3D
102
}
330
3D
100
AcDbScale
 70
     0
300
3" = 1'-0"
140
3.0
141
12.0
290
     0
  0
SCALE
  5
5D
102
{ACAD_REACTORS
330
3D
102
}
330
3D
100
AcDbScale
 70
     0
300
6" = 1'-0"
140
6.0
141
12.0
290
     0
  0
SCALE
  5
5E
102
{ACAD_REACTORS
330
3D
102
}
330
3D
100
AcDbScale
 70
     0
300
1'-0" = 1'-0"
140
12.0
141
12.0
290
     0
  0
TABLESTYLE
  5
70
102
{ACAD_XDICTIONARY
360
1BA6
102
}
102
{ACAD_REACTORS
330
6F
102
}
330
6F
100
AcDbTableStyle
  3
Standard
 70
     0
 71
     0
 40
0.06
 41
0.06
280
     0
281
     0
  7
Standard
140
0.18
170
     2
 62
     0
 63
     7
283
     0
274
    -2
284
     1
 64
     0
275
    -2
285
     1
 65
     0
276
    -2
286
     1
 66
     0
277
    -2
287
     1
 67
     0
278
    -2
288
     1
 68
     0
279
    -2
289
     1
 69
     0
  7
Standard
140
0.25
170
     5
 62
     0
 63
     7
283
     0
274
    -2
284
     1
 64
     0
275
    -2
285
     1
 65
     0
276
    -2
286
     1
 66
     0
277
    -2
287
     1
 67
     0
278
    -2
288
     1
 68
     0
279
    -2
289
     1
 69
     0
  7
Standard
140
0.18
170
     5
 62
     0
 63
     7
283
     0
274
    -2
284
     1
 64
     0
275
    -2
285
     1
 65
     0
276
    -2
286
     1
 66
     0
277
    -2
287
     1
 67
     0
278
    -2
288
     1
 68
     0
279
    -2
289
     1
 69
     0
  0
VISUALSTYLE
  5
2F
102
{ACAD_XDICTIONARY
360
1DA8
102
}
102
{ACAD_REACTORS
330
29
102
}
330
29
100
AcDbVisualStyle
  2
2dWireframe
 70
     4
 71
     0
 72
     2
 73
     0
 90
        0
 40
-0.6
 41
-30.0
 62
     5
 63
     7
 74
     1
 91
        4
 64
     7
 65
   257
 75
     1
175
     1
 42
1.0
 92
        0
 66
   257
 43
1.0
 76
     1
 77
     6
 78
     2
 67
     7
 79
     5
170
     0
171
     0
290
     0
174
     0
 93
        1
 44
0.0
173
     0
291
     0
 45
0.0
1001
ACAD
1000
AcDbSavedByObjectVersion
1070
     0
  0
VISUALSTYLE
  5
31
102
{ACAD_XDICTIONARY
360
1DAC
102
}
102
{ACAD_REACTORS
330
29
102
}
330
29
100
AcDbVisualStyle
  2
3D Hidden
 70
     6
 71
     1
 72
     2
 73
     2
 90
        0
 40
-0.6
 41
-30.0
 62
     5
 63
     7
 74
     2
 91
        2
 64
     7
 65
   257
 75
     2
175
     1
 42
179.0
 92
        0
 66
   257
 43
1.0
 76
     1
 77
     6
 78
     2
 67
     7
 79
     3
170
     0
171
     0
290
     0
174
     0
 93
        1
 44
0.0
173
     0
291
     0
 45
0.0
1001
ACAD
1000
AcDbSavedByObjectVersion
1070
     0
  0
VISUALSTYLE
  5
30
102
{ACAD_XDICTIONARY
360
1DAA
102
}
102
{ACAD_REACTORS
330
29
102
}
330
29
100
AcDbVisualStyle
  2
3dWireframe
 70
     5
 71
     0
 72
     2
 73
     0
 90
        0
 40
-0.6
 41
-30.0
 62
     5
 63
     7
 74
     1
 91
        4
 64
     7
 65
   257
 75
     1
175
     1
 42
1.0
 92
        0
 66
   257
 43
1.0
 76
     1
 77
     6
 78
     2
 67
     7
 79
     5
170
     0
171
     0
290
     0
174
     0
 93
        1
 44
0.0
173
     0
291
     0
 45
0.0
1001
ACAD
1000
AcDbSavedByObjectVersion
1070
     0
  0
VISUALSTYLE
  5
2E
102
{ACAD_XDICTIONARY
360
1DA6
102
}
102
{ACAD_REACTORS
330
29
102
}
330
29
100
AcDbVisualStyle
  2
Basic
 70
     7
 71
     1
 72
     0
 73
     1
 90
        0
 40
-0.6
 41
-30.0
 62
     5
 63
     7
 74
     0
 91
        4
 64
     7
 65
   257
 75
     1
175
     1
 42
1.0
 92
        8
 66
     7
 43
1.0
 76
     1
 77
     6
 78
     2
 67
     7
 79
     5
170
     0
171
     0
290
     0
174
     0
 93
        1
 44
0.0
173
     0
291
     1
 45
0.0
1001
ACAD
1000
AcDbSavedByObjectVersion
1070
     0
  0
VISUALSTYLE
  5
35
102
{ACAD_XDICTIONARY
360
1DB4
102
}
102
{ACAD_REACTORS
330
29
102
}
330
29
100
AcDbVisualStyle
  2
Brighten
 70
    12
 71
     2
 72
     2
 73
     0
 90
        0
 40
-0.6
 41
-30.0
 62
     5
 63
     7
 74
     1
 91
        4
 64
     7
 65
   257
 75
     1
175
     1
 42
1.0
 92
        8
 66
     7
 43
1.0
 76
     1
 77
     6
 78
     2
 67
     7
 79
     5
170
     0
171
     0
290
     0
174
     0
 93
        1
 44
50.0
173
     0
291
     1
 45
0.0
1001
ACAD
1000
AcDbSavedByObjectVersion
1070
     0
  0
VISUALSTYLE
  5
39
102
{ACAD_XDICTIONARY
360
1DBC
102
}
102
{ACAD_REACTORS
330
29
102
}
330
29
100
AcDbVisualStyle
  2
ColorChange
 70
    16
 71
     2
 72
     2
 73
     3
 90
        0
 40
-0.6
 41
-30.0
 62
     5
 63
     8
 74
     1
 91
        4
 64
     7
 65
   257
 75
     1
175
     1
 42
1.0
 92
        8
 66
     8
 43
1.0
 76
     1
 77
     6
 78
     2
 67
     7
 79
     5
170
     0
171
     0
290
     0
174
     0
 93
        1
 44
0.0
173
     0
291
     1
 45
0.0
1001
ACAD
1000
AcDbSavedByObjectVersion
1070
     0
  0
VISUALSTYLE
  5
32
102
{ACAD_XDICTIONARY
360
1DAE
102
}
102
{ACAD_REACTORS
330
29
102
}
330
29
100
AcDbVisualStyle
  2
Conceptual
 70
     9
 71
     3
 72
     2
 73
     0
 90
        0
 40
-0.6
 41
-30.0
 62
     5
 63
     7
 74
     2
 91
        2
 64
     7
 65
   257
 75
     1
175
     1
 42
179.0
 92
        8
 66
     7
 43
1.0
 76
     1
 77
     6
 78
     2
 67
     7
 79
     3
170
     0
171
     0
290
     0
174
     0
 93
        1
 44
0.0
173
     0
291
     0
 45
0.0
1001
ACAD
1000
AcDbSavedByObjectVersion
1070
     0
  0
VISUALSTYLE
  5
34
102
{ACAD_XDICTIONARY
360
1DB2
102
}
102
{ACAD_REACTORS
330
29
102
}
330
29
100
AcDbVisualStyle
  2
Dim
 70
    11
 71
     2
 72
     2
 73
     0
 90
        0
 40
-0.6
 41
-30.0
 62
     5
 63
     7
 74
     1
 91
        4
 64
     7
 65
   257
 75
     1
175
     1
 42
1.0
 92
        8
 66
     7
 43
1.0
 76
     1
 77
     6
 78
     2
 67
     7
 79
     5
170
     0
171
     0
290
     0
174
     0
 93
        1
 44
-50.0
173
     0
291
     1
 45
0.0
1001
ACAD
1000
AcDbSavedByObjectVersion
1070
     0
  0
VISUALSTYLE
  5
3C
102
{ACAD_XDICTIONARY
360
1DC2
102
}
102
{ACAD_REACTORS
330
29
102
}
330
29
100
AcDbVisualStyle
  2
EdgeColorOff
 70
    22
 71
     2
 72
     2
 73
     0
 90
        0
 40
-0.6
 41
-30.0
 62
     5
 63
     7
 74
     1
 91
        4
 64
     7
 65
   257
 75
     1
175
     1
 42
1.0
 92
        8
 66
     7
 43
1.0
 76
     1
 77
     6
 78
     2
 67
     7
 79
     5
170
     0
171
     0
290
     0
174
     0
 93
        1
 44
0.0
173
     0
291
     1
 45
0.0
1001
ACAD
1000
AcDbSavedByObjectVersion
1070
     0
  0
VISUALSTYLE
  5
38
102
{ACAD_XDICTIONARY
360
1DBA
102
}
102
{ACAD_REACTORS
330
29
102
}
330
29
100
AcDbVisualStyle
  2
Facepattern
 70
    15
 71
     2
 72
     2
 73
     0
 90
        0
 40
-0.6
 41
-30.0
 62
     5
 63
     7
 74
     1
 91
        4
 64
     7
 65
   257
 75
     1
175
     1
 42
1.0
 92
        8
 66
     7
 43
1.0
 76
     1
 77
     6
 78
     2
 67
     7
 79
     5
170
     0
171
     0
290
     0
174
     0
 93
        1
 44
0.0
173
     0
291
     1
 45
0.0
1001
ACAD
1000
AcDbSavedByObjectVersion
1070
     0
  0
VISUALSTYLE
  5
2A
102
{ACAD_XDICTIONARY
360
1D9E
102
}
102
{ACAD_REACTORS
330
29
102
}
330
29
100
AcDbVisualStyle
  2
Flat
 70
     0
 71
     2
 72
     1
 73
     1
 90
        2
 40
-0.6
 41
30.0
 62
     5
 63
     7
 74
     0
 91
        4
 64
     7
 65
   257
 75
     1
175
     1
 42
1.0
 92
        8
 66
     7
 43
1.0
 76
     1
 77
     6
 78
     2
 67
     7
 79
     5
170
     0
171
     0
290
     0
174
     0
 93
       13
 44
0.0
173
     0
291
     1
 45
0.0
1001
ACAD
1000
AcDbSavedByObjectVersion
1070
     0
  0
VISUALSTYLE
  5
2B
102
{ACAD_XDICTIONARY
360
1DA0
102
}
102
{ACAD_REACTORS
330
29
102
}
330
29
100
AcDbVisualStyle
  2
FlatWithEdges
 70
     1
 71
     2
 72
     1
 73
     1
 90
        2
 40
-0.6
 41
30.0
 62
     5
 63
     7
 74
     1
 91
        4
 64
     7
 65
   257
 75
     1
175
     1
 42
1.0
 92
        0
 66
   257
 43
1.0
 76
     1
 77
     6
 78
     2
 67
     7
 79
     5
170
     0
171
     0
290
     0
174
     0
 93
       13
 44
0.0
173
     0
291
     1
 45
0.0
1001
ACAD
1000
AcDbSavedByObjectVersion
1070
     0
  0
VISUALSTYLE
  5
2C
102
{ACAD_XDICTIONARY
360
1DA2
102
}
102
{ACAD_REACTORS
330
29
102
}
330
29
100
AcDbVisualStyle
  2
Gouraud
 70
     2
 71
     2
 72
     2
 73
     1
 90
        2
 40
-0.6
 41
30.0
 62
     5
 63
     7
 74
     0
 91
        4
 64
     7
 65
   257
 75
     1
175
     1
 42
1.0
 92
        0
 66
     7
 43
1.0
 76
     1
 77
     6
 78
     2
 67
     7
 79
     5
170
     0
171
     0
290
     0
174
     0
 93
       13
 44
0.0
173
     0
291
     1
 45
0.0
1001
ACAD
1000
AcDbSavedByObjectVersion
1070
     0
  0
VISUALSTYLE
  5
2D
102
{ACAD_XDICTIONARY
360
1DA4
102
}
102
{ACAD_REACTORS
330
29
102
}
330
29
100
AcDbVisualStyle
  2
GouraudWithEdges
 70
     3
 71
     2
 72
     2
 73
     1
 90
        2
 40
-0.6
 41
30.0
 62
     5
 63
     7
 74
     1
 91
        4
 64
     7
 65
   257
 75
     1
175
     1
 42
1.0
 92
        0
 66
   257
 43
1.0
 76
     1
 77
     6
 78
     2
 67
     7
 79
     5
170
     0
171
     0
290
     0
174
     0
 93
       13
 44
0.0
173
     0
291
     1
 45
0.0
1001
ACAD
1000
AcDbSavedByObjectVersion
1070
     0
  0
VISUALSTYLE
  5
3A
102
{ACAD_XDICTIONARY
360
1DBE
102
}
102
{ACAD_REACTORS
330
29
102
}
330
29
100
AcDbVisualStyle
  2
JitterOff
 70
    20
 71
     2
 72
     2
 73
     0
 90
        0
 40
-0.6
 41
-30.0
 62
     5
 63
     7
 74
     1
 91
        4
 64
     7
 65
   257
 75
     1
175
     1
 42
1.0
 92
       10
 66
     7
 43
1.0
 76
     1
 77
     6
 78
     2
 67
     7
 79
     5
170
     0
171
     0
290
     0
174
     0
 93
        1
 44
0.0
173
     0
291
     1
 45
0.0
1001
ACAD
1000
AcDbSavedByObjectVersion
1070
     0
  0
VISUALSTYLE
  5
37
102
{ACAD_XDICTIONARY
360
1DB8
102
}
102
{ACAD_REACTORS
330
29
102
}
330
29
100
AcDbVisualStyle
  2
Linepattern
 70
    14
 71
     2
 72
     2
 73
     0
 90
        0
 40
-0.6
 41
-30.0
 62
     5
 63
     7
 74
     1
 91
        4
 64
     7
 65
   257
 75
     7
175
     7
 42
1.0
 92
        8
 66
     7
 43
1.0
 76
     1
 77
     6
 78
     2
 67
     7
 79
     5
170
     0
171
     0
290
     0
174
     0
 93
        1
 44
0.0
173
     0
291
     1
 45
0.0
1001
ACAD
1000
AcDbSavedByObjectVersion
1070
     0
  0
VISUALSTYLE
  5
3B
102
{ACAD_XDICTIONARY
360
1DC0
102
}
102
{ACAD_REACTORS
330
29
102
}
330
29
100
AcDbVisualStyle
  2
OverhangOff
 70
    21
 71
     2
 72
     2
 73
     0
 90
        0
 40
-0.6
 41
-30.0
 62
     5
 63
     7
 74
     1
 91
        4
 64
     7
 65
   257
 75
     1
175
     1
 42
1.0
 92
        9
 66
     7
 43
1.0
 76
     1
 77
     6
 78
     2
 67
     7
 79
     5
170
     0
171
     0
290
     0
174
     0
 93
        1
 44
0.0
173
     0
291
     1
 45
0.0
1001
ACAD
1000
AcDbSavedByObjectVersion
1070
     0
  0
VISUALSTYLE
  5
33
102
{ACAD_XDICTIONARY
360
1DB0
102
}
102
{ACAD_REACTORS
330
29
102
}
330
29
100
AcDbVisualStyle
  2
Realistic
 70
     8
 71
     2
 72
     2
 73
     0
 90
        0
 40
-0.6
 41
-30.0
 62
     5
 63
     7
 74
     1
 91
        0
 64
     7
 65
   257
 75
     1
175
     1
 42
1.0
 92
        8
 66
     8
 43
1.0
 76
     1
 77
     6
 78
     2
 67
     7
 79
     5
170
     0
171
     0
290
     0
174
     0
 93
       13
 44
0.0
173
     0
291
     0
 45
0.0
1001
ACAD
1000
AcDbSavedByObjectVersion
1070
     0
  0
VISUALSTYLE
  5
36
102
{ACAD_XDICTIONARY
360
1DB6
102
}
102
{ACAD_REACTORS
330
29
102
}
330
29
100
AcDbVisualStyle
  2
Thicken
 70
    13
 71
     2
 72
     2
 73
     0
 90
        0
 40
-0.6
 41
-30.0
 62
     5
 63
     7
 74
     1
 91
        4
 64
     7
 65
   257
 75
     1
175
     1
 42
1.0
 92
       12
 66
     7
 43
1.0
 76
     1
 77
     6
 78
     2
 67
     7
 79
     5
170
     0
171
     0
290
     0
174
     0
 93
        1
 44
0.0
173
     0
291
     1
 45
0.0
1001
ACAD
1000
AcDbSavedByObjectVersion
1070
     0
  0
DICTIONARYVAR
  5
1CAF
102
{ACAD_REACTORS
330
1CAB
102
}
330
1CAB
100
DictionaryVariables
280
     0
  1
1:1
  0
DICTIONARYVAR
  5
1CAD
102
{ACAD_REACTORS
330
1CAB
102
}
330
1CAB
100
DictionaryVariables
280
     0
  1
STANDARD
  0
DICTIONARYVAR
  5
1CAC
102
{ACAD_REACTORS
330
1CAB
102
}
330
1CAB
100
DictionaryVariables
280
     0
  1
STANDARD
  0
DICTIONARYVAR
  5
1CB6
102
{ACAD_REACTORS
330
1CAB
102
}
330
1CAB
100
DictionaryVariables
280
     0
  1
1
  0
DICTIONARYVAR
  5
1CB5
102
{ACAD_REACTORS
330
1CAB
102
}
330
1CAB
100
DictionaryVariables
280
     0
  1
1
  0
DICTIONARYVAR
  5
1CB4
102
{ACAD_REACTORS
330
1CAB
102
}
330
1CAB
100
DictionaryVariables
280
     0
  1
0
  0
DICTIONARYVAR
  5
1CB1
102
{ACAD_REACTORS
330
1CAB
102
}
330
1CAB
100
DictionaryVariables
280
     0
  1
0
  0
DICTIONARYVAR
  5
1CB2
102
{ACAD_REACTORS
330
1CAB
102
}
330
1CAB
100
DictionaryVariables
280
     0
  1
0
  0
DICTIONARYVAR
  5
1CB0
102
{ACAD_REACTORS
330
1CAB
102
}
330
1CAB
100
DictionaryVariables
280
     0
  1
2
  0
DICTIONARYVAR
  5
1CAE
102
{ACAD_REACTORS
330
1CAB
102
}
330
1CAB
100
DictionaryVariables
280
     0
  1
1
  0
DICTIONARYVAR
  5
1CB3
102
{ACAD_REACTORS
330
1CAB
102
}
330
1CAB
100
DictionaryVariables
280
     0
  1
127
  0
DICTIONARYVAR
  5
1D5B
102
{ACAD_REACTORS
330
1CAB
102
}
330
1CAB
100
DictionaryVariables
280
     0
  1
2
  0
DICTIONARY
  5
1D29
102
{ACAD_REACTORS
330
1D1D
102
}
330
1D1D
100
AcDbDictionary
281
     1
  0
DICTIONARY
  5
1DC5
330
76
100
AcDbDictionary
280
     1
281
     1
  3
ACAD_XREC_ROUNDTRIP
360
1DC6
  0
DICTIONARY
  5
1DC9
330
7E
100
AcDbDictionary
280
     1
281
     1
  3
ACAD_XREC_ROUNDTRIP
360
1DCA
  0
DICTIONARY
  5
1DC7
330
7A
100
AcDbDictionary
280
     1
281
     1
  3
ACAD_XREC_ROUNDTRIP
360
1DC8
  0
DICTIONARY
  5
1A
330
19
100
AcDbDictionary
280
     1
281
     1
  3
ACAD_XREC_ROUNDTRIP
360
1D9C
  3
BUMPTILE
360
1C
  3
DIFFUSETILE
360
1B
  3
OPACITYTILE
360
1F
  3
REFLECTIONTILE
360
1E
  3
REFRACTIONTILE
360
20
  3
SPECULARTILE
360
1D
  0
DICTIONARY
  5
12
330
11
100
AcDbDictionary
280
     1
281
     1
  3
ACAD_XREC_ROUNDTRIP
360
1D9B
  3
BUMPTILE
360
14
  3
DIFFUSETILE
360
13
  3
OPACITYTILE
360
17
  3
REFLECTIONTILE
360
16
  3
REFRACTIONTILE
360
18
  3
SPECULARTILE
360
15
  0
DICTIONARY
  5
22
330
21
100
AcDbDictionary
280
     1
281
     1
  3
ACAD_XREC_ROUNDTRIP
360
1D9D
  3
BUMPTILE
360
24
  3
DIFFUSETILE
360
23
  3
OPACITYTILE
360
27
  3
REFLECTIONTILE
360
26
  3
REFRACTIONTILE
360
28
  3
SPECULARTILE
360
25
  0
DICTIONARY
  5
1BA6
330
70
100
AcDbDictionary
280
     1
281
     1
  3
ACAD_ROUNDTRIP_2008_TABLESTYLE_CELLSTYLEMAP
360
1D5C
  3
ACAD_XREC_ROUNDTRIP
360
1DC4
  0
DICTIONARY
  5
1DA8
330
2F
100
AcDbDictionary
280
     1
281
     1
  3
ACAD_XREC_ROUNDTRIP
360
1DA9
  0
DICTIONARY
  5
1DAC
330
31
100
AcDbDictionary
280
     1
281
     1
  3
ACAD_XREC_ROUNDTRIP
360
1DAD
  0
DICTIONARY
  5
1DAA
330
30
100
AcDbDictionary
280
     1
281
     1
  3
ACAD_XREC_ROUNDTRIP
360
1DAB
  0
DICTIONARY
  5
1DA6
330
2E
100
AcDbDictionary
280
     1
281
     1
  3
ACAD_XREC_ROUNDTRIP
360
1DA7
  0
DICTIONARY
  5
1DB4
330
35
100
AcDbDictionary
280
     1
281
     1
  3
ACAD_XREC_ROUNDTRIP
360
1DB5
  0
DICTIONARY
  5
1DBC
330
39
100
AcDbDictionary
280
     1
281
     1
  3
ACAD_XREC_ROUNDTRIP
360
1DBD
  0
DICTIONARY
  5
1DAE
330
32
100
AcDbDictionary
280
     1
281
     1
  3
ACAD_XREC_ROUNDTRIP
360
1DAF
  0
DICTIONARY
  5
1DB2
330
34
100
AcDbDictionary
280
     1
281
     1
  3
ACAD_XREC_ROUNDTRIP
360
1DB3
  0
DICTIONARY
  5
1DC2
330
3C
100
AcDbDictionary
280
     1
281
     1
  3
ACAD_XREC_ROUNDTRIP
360
1DC3
  0
DICTIONARY
  5
1DBA
330
38
100
AcDbDictionary
280
     1
281
     1
  3
ACAD_XREC_ROUNDTRIP
360
1DBB
  0
DICTIONARY
  5
1D9E
330
2A
100
AcDbDictionary
280
     1
281
     1
  3
ACAD_XREC_ROUNDTRIP
360
1D9F
  0
DICTIONARY
  5
1DA0
330
2B
100
AcDbDictionary
280
     1
281
     1
  3
ACAD_XREC_ROUNDTRIP
360
1DA1
  0
DICTIONARY
  5
1DA2
330
2C
100
AcDbDictionary
280
     1
281
     1
  3
ACAD_XREC_ROUNDTRIP
360
1DA3
  0
DICTIONARY
  5
1DA4
330
2D
100
AcDbDictionary
280
     1
281
     1
  3
ACAD_XREC_ROUNDTRIP
360
1DA5
  0
DICTIONARY
  5
1DBE
330
3A
100
AcDbDictionary
280
     1
281
     1
  3
ACAD_XREC_ROUNDTRIP
360
1DBF
  0
DICTIONARY
  5
1DB8
330
37
100
AcDbDictionary
280
     1
281
     1
  3
ACAD_XREC_ROUNDTRIP
360
1DB9
  0
DICTIONARY
  5
1DC0
330
3B
100
AcDbDictionary
280
     1
281
     1
  3
ACAD_XREC_ROUNDTRIP
360
1DC1
  0
DICTIONARY
  5
1DB0
330
33
100
AcDbDictionary
280
     1
281
     1
  3
ACAD_XREC_ROUNDTRIP
360
1DB1
  0
DICTIONARY
  5
1DB6
330
36
100
AcDbDictionary
280
     1
281
     1
  3
ACAD_XREC_ROUNDTRIP
360
1DB7
  0
XRECORD
  5
1DC6
102
{ACAD_REACTORS
330
1DC5
102
}
330
1DC5
100
AcDbXrecord
280
     1
102
SHADEPLOT
 70
     0
102
SHADEPLOTRESLEVEL
 70
     2
102
SHADEPLOTCUSTOMDPI
 70
   300
  0
XRECORD
  5
1DCA
102
{ACAD_REACTORS
330
1DC9
102
}
330
1DC9
100
AcDbXrecord
280
     1
102
SHADEPLOT
 70
     0
102
SHADEPLOTRESLEVEL
 70
     2
102
SHADEPLOTCUSTOMDPI
 70
   300
  0
XRECORD
  5
1DC8
102
{ACAD_REACTORS
330
1DC7
102
}
330
1DC7
100
AcDbXrecord
280
     1
102
SHADEPLOT
 70
     0
102
SHADEPLOTRESLEVEL
 70
     2
102
SHADEPLOTCUSTOMDPI
 70
   300
  0
XRECORD
  5
1D9C
102
{ACAD_REACTORS
330
1A
102
}
330
1A
100
AcDbXrecord
280
     1
102
MATERIAL
148
0.0
149
0.0
149
0.0
 93
        0
 94
      127
282
     0
 72
     0
 77
     0
171
     0
175
     0
179
     0
273
     0
  0
XRECORD
  5
1C
102
{ACAD_REACTORS
330
1A
102
}
330
1A
100
AcDbXrecord
280
     1
270
     1
271
     1
  0
XRECORD
  5
1B
102
{ACAD_REACTORS
330
1A
102
}
330
1A
100
AcDbXrecord
280
     1
270
     1
271
     1
  0
XRECORD
  5
1F
102
{ACAD_REACTORS
330
1A
102
}
330
1A
100
AcDbXrecord
280
     1
270
     1
271
     1
  0
XRECORD
  5
1E
102
{ACAD_REACTORS
330
1A
102
}
330
1A
100
AcDbXrecord
280
     1
270
     1
271
     1
  0
XRECORD
  5
20
102
{ACAD_REACTORS
330
1A
102
}
330
1A
100
AcDbXrecord
280
     1
270
     1
271
     1
  0
XRECORD
  5
1D
102
{ACAD_REACTORS
330
1A
102
}
330
1A
100
AcDbXrecord
280
     1
270
     1
271
     1
  0
XRECORD
  5
1D9B
102
{ACAD_REACTORS
330
12
102
}
330
12
100
AcDbXrecord
280
     1
102
MATERIAL
148
0.0
149
0.0
149
0.0
 93
        0
 94
      127
282
     0
 72
     0
 77
     0
171
     0
175
     0
179
     0
273
     0
  0
XRECORD
  5
14
102
{ACAD_REACTORS
330
12
102
}
330
12
100
AcDbXrecord
280
     1
270
     1
271
     1
  0
XRECORD
  5
13
102
{ACAD_REACTORS
330
12
102
}
330
12
100
AcDbXrecord
280
     1
270
     1
271
     1
  0
XRECORD
  5
17
102
{ACAD_REACTORS
330
12
102
}
330
12
100
AcDbXrecord
280
     1
270
     1
271
     1
  0
XRECORD
  5
16
102
{ACAD_REACTORS
330
12
102
}
330
12
100
AcDbXrecord
280
     1
270
     1
271
     1
  0
XRECORD
  5
18
102
{ACAD_REACTORS
330
12
102
}
330
12
100
AcDbXrecord
280
     1
270
     1
271
     1
  0
XRECORD
  5
15
102
{ACAD_REACTORS
330
12
102
}
330
12
100
AcDbXrecord
280
     1
270
     1
271
     1
  0
XRECORD
  5
1D9D
102
{ACAD_REACTORS
330
22
102
}
330
22
100
AcDbXrecord
280
     1
102
MATERIAL
148
0.0
149
0.0
149
0.0
 93
        0
 94
      127
282
     0
 72
     0
 77
     0
171
     0
175
     0
179
     0
273
     0
  0
XRECORD
  5
24
102
{ACAD_REACTORS
330
22
102
}
330
22
100
AcDbXrecord
280
     1
270
     1
271
     1
  0
XRECORD
  5
23
102
{ACAD_REACTORS
330
22
102
}
330
22
100
AcDbXrecord
280
     1
270
     1
271
     1
  0
XRECORD
  5
27
102
{ACAD_REACTORS
330
22
102
}
330
22
100
AcDbXrecord
280
     1
270
     1
271
     1
  0
XRECORD
  5
26
102
{ACAD_REACTORS
330
22
102
}
330
22
100
AcDbXrecord
280
     1
270
     1
271
     1
  0
XRECORD
  5
28
102
{ACAD_REACTORS
330
22
102
}
330
22
100
AcDbXrecord
280
     1
270
     1
271
     1
  0
XRECORD
  5
25
102
{ACAD_REACTORS
330
22
102
}
330
22
100
AcDbXrecord
280
     1
270
     1
271
     1
  0
CELLSTYLEMAP
  5
1D5C
102
{ACAD_REACTORS
330
1BA6
102
}
330
1BA6
100
AcDbCellStyleMap
 90
        3
300
CELLSTYLE
  1
TABLEFORMAT_BEGIN
 90
        5
170
     1
 91
        0
 92
    32768
 62
   257
 93
        1
300
CONTENTFORMAT
  1
CONTENTFORMAT_BEGIN
 90
        0
 91
        0
 92
      512
 93
        0
300

 40
0.0
140
1.0
 94
        5
 62
     0
340
60
144
0.25
309
CONTENTFORMAT_END
171
     0
 94
        0
309
TABLEFORMAT_END
  1
CELLSTYLE_BEGIN
 90
        1
 91
        1
300
_TITLE
309
CELLSTYLE_END
300
CELLSTYLE
  1
TABLEFORMAT_BEGIN
 90
        5
170
     1
 91
        0
 92
        0
 62
   257
 93
        1
300
CONTENTFORMAT
  1
CONTENTFORMAT_BEGIN
 90
        0
 91
        0
 92
      512
 93
        0
300

 40
0.0
140
1.0
 94
        5
 62
     0
340
60
144
0.18
309
CONTENTFORMAT_END
171
     0
 94
        0
309
TABLEFORMAT_END
  1
CELLSTYLE_BEGIN
 90
        2
 91
        1
300
_HEADER
309
CELLSTYLE_END
300
CELLSTYLE
  1
TABLEFORMAT_BEGIN
 90
        5
170
     1
 91
        0
 92
        0
 62
   257
 93
        1
300
CONTENTFORMAT
  1
CONTENTFORMAT_BEGIN
 90
        0
 91
        0
 92
      512
 93
        0
300

 40
0.0
140
1.0
 94
        2
 62
     0
340
60
144
0.18
309
CONTENTFORMAT_END
171
     0
 94
        0
309
TABLEFORMAT_END
  1
CELLSTYLE_BEGIN
 90
        3
 91
        2
300
_DATA
309
CELLSTYLE_END
  0
XRECORD
  5
1DC4
102
{ACAD_REACTORS
330
1BA6
102
}
330
1BA6
100
AcDbXrecord
280
     1
102
ACAD_ROUNDTRIP_PRE2007_TABLESTYLE
 90
      512
 91
        0
  1

 92
      512
 93
        0
  2

 94
      512
 95
        0
  3

  0
XRECORD
  5
1DA9
102
{ACAD_REACTORS
330
1DA8
102
}
330
1DA8
100
AcDbXrecord
280
     1
102
RTVSPropertyOp0
 70
     1
102
RTVSPropertyOp1
 70
     1
102
RTVSPropertyOp2
 70
     1
102
RTVSPropertyOp3
 70
     1
102
RTVSPropertyOp4
 70
     1
102
RTVSPropertyOp5
 70
     1
102
RTVSPropertyOp6
 70
     1
102
RTVSPropertyOp7
 70
     1
102
RTVSPropertyOp8
 70
     1
102
RTVSPropertyOp9
 70
     1
102
RTVSPropertyOp10
 70
     1
102
RTVSPropertyOp11
 70
     1
102
RTVSPropertyOp12
 70
     1
102
RTVSPropertyOp13
 70
     1
102
RTVSPropertyOp14
 70
     1
102
RTVSPropertyOp15
 70
     1
102
RTVSPropertyOp16
 70
     1
102
RTVSPropertyOp17
 70
     1
102
RTVSPropertyOp18
 70
     1
102
RTVSPropertyOp19
 70
     1
102
RTVSPropertyOp20
 70
     1
102
RTVSPropertyOp21
 70
     1
102
RTVSPropertyOp22
 70
     1
102
RTVSPropertyOp23
 70
     1
102
RTVSPropertyOp24
 70
     1
102
RTVSPropertyOp25
 70
     1
102
RTVSPropertyOp26
 70
     1
102
RTVSPropertyOp27
 70
     1
  0
XRECORD
  5
1DAD
102
{ACAD_REACTORS
330
1DAC
102
}
330
1DAC
100
AcDbXrecord
280
     1
102
RTVSPropertyOp0
 70
     1
102
RTVSPropertyOp1
 70
     1
102
RTVSPropertyOp2
 70
     1
102
RTVSPropertyOp3
 70
     1
102
RTVSPropertyOp4
 70
     1
102
RTVSPropertyOp5
 70
     1
102
RTVSPropertyOp6
 70
     1
102
RTVSPropertyOp7
 70
     1
102
RTVSPropertyOp8
 70
     1
102
RTVSPropertyOp9
 70
     1
102
RTVSPropertyOp10
 70
     1
102
RTVSPropertyOp11
 70
     1
102
RTVSPropertyOp12
 70
     1
102
RTVSPropertyOp13
 70
     1
102
RTVSPropertyOp14
 70
     1
102
RTVSPropertyOp15
 70
     1
102
RTVSPropertyOp16
 70
     1
102
RTVSPropertyOp17
 70
     1
102
RTVSPropertyOp18
 70
     1
102
RTVSPropertyOp19
 70
     1
102
RTVSPropertyOp20
 70
     1
102
RTVSPropertyOp21
 70
     1
102
RTVSPropertyOp22
 70
     1
102
RTVSPropertyOp23
 70
     1
102
RTVSPropertyOp24
 70
     1
102
RTVSPropertyOp25
 70
     1
102
RTVSPropertyOp26
 70
     1
102
RTVSPropertyOp27
 70
     1
  0
XRECORD
  5
1DAB
102
{ACAD_REACTORS
330
1DAA
102
}
330
1DAA
100
AcDbXrecord
280
     1
102
RTVSPropertyOp0
 70
     1
102
RTVSPropertyOp1
 70
     1
102
RTVSPropertyOp2
 70
     1
102
RTVSPropertyOp3
 70
     1
102
RTVSPropertyOp4
 70
     1
102
RTVSPropertyOp5
 70
     1
102
RTVSPropertyOp6
 70
     1
102
RTVSPropertyOp7
 70
     1
102
RTVSPropertyOp8
 70
     1
102
RTVSPropertyOp9
 70
     1
102
RTVSPropertyOp10
 70
     1
102
RTVSPropertyOp11
 70
     1
102
RTVSPropertyOp12
 70
     1
102
RTVSPropertyOp13
 70
     1
102
RTVSPropertyOp14
 70
     1
102
RTVSPropertyOp15
 70
     1
102
RTVSPropertyOp16
 70
     1
102
RTVSPropertyOp17
 70
     1
102
RTVSPropertyOp18
 70
     1
102
RTVSPropertyOp19
 70
     1
102
RTVSPropertyOp20
 70
     1
102
RTVSPropertyOp21
 70
     1
102
RTVSPropertyOp22
 70
     1
102
RTVSPropertyOp23
 70
     1
102
RTVSPropertyOp24
 70
     1
102
RTVSPropertyOp25
 70
     1
102
RTVSPropertyOp26
 70
     1
102
RTVSPropertyOp27
 70
     1
  0
XRECORD
  5
1DA7
102
{ACAD_REACTORS
330
1DA6
102
}
330
1DA6
100
AcDbXrecord
280
     1
102
RTVSPropertyOp0
 70
     1
102
RTVSPropertyOp1
 70
     1
102
RTVSPropertyOp2
 70
     1
102
RTVSPropertyOp3
 70
     1
102
RTVSPropertyOp4
 70
     1
102
RTVSPropertyOp5
 70
     1
102
RTVSPropertyOp6
 70
     1
102
RTVSPropertyOp7
 70
     1
102
RTVSPropertyOp8
 70
     1
102
RTVSPropertyOp9
 70
     1
102
RTVSPropertyOp10
 70
     1
102
RTVSPropertyOp11
 70
     1
102
RTVSPropertyOp12
 70
     1
102
RTVSPropertyOp13
 70
     1
102
RTVSPropertyOp14
 70
     1
102
RTVSPropertyOp15
 70
     1
102
RTVSPropertyOp16
 70
     1
102
RTVSPropertyOp17
 70
     1
102
RTVSPropertyOp18
 70
     1
102
RTVSPropertyOp19
 70
     1
102
RTVSPropertyOp20
 70
     1
102
RTVSPropertyOp21
 70
     1
102
RTVSPropertyOp22
 70
     1
102
RTVSPropertyOp23
 70
     1
102
RTVSPropertyOp24
 70
     1
102
RTVSPropertyOp25
 70
     1
102
RTVSPropertyOp26
 70
     1
102
RTVSPropertyOp27
 70
     1
  0
XRECORD
  5
1DB5
102
{ACAD_REACTORS
330
1DB4
102
}
330
1DB4
100
AcDbXrecord
280
     1
102
RTVSPropertyOp0
 70
     1
102
RTVSPropertyOp1
 70
     1
102
RTVSPropertyOp2
 70
     1
102
RTVSPropertyOp3
 70
     1
102
RTVSPropertyOp4
 70
     1
102
RTVSPropertyOp5
 70
     1
102
RTVSPropertyOp6
 70
     1
102
RTVSPropertyOp7
 70
     1
102
RTVSPropertyOp8
 70
     1
102
RTVSPropertyOp9
 70
     1
102
RTVSPropertyOp10
 70
     1
102
RTVSPropertyOp11
 70
     1
102
RTVSPropertyOp12
 70
     1
102
RTVSPropertyOp13
 70
     1
102
RTVSPropertyOp14
 70
     1
102
RTVSPropertyOp15
 70
     1
102
RTVSPropertyOp16
 70
     1
102
RTVSPropertyOp17
 70
     1
102
RTVSPropertyOp18
 70
     1
102
RTVSPropertyOp19
 70
     1
102
RTVSPropertyOp20
 70
     1
102
RTVSPropertyOp21
 70
     1
102
RTVSPropertyOp22
 70
     1
102
RTVSPropertyOp23
 70
     1
102
RTVSPropertyOp24
 70
     1
102
RTVSPropertyOp25
 70
     1
102
RTVSPropertyOp26
 70
     1
102
RTVSPropertyOp27
 70
     1
  0
XRECORD
  5
1DBD
102
{ACAD_REACTORS
330
1DBC
102
}
330
1DBC
100
AcDbXrecord
280
     1
102
RTVSPropertyOp0
 70
     1
102
RTVSPropertyOp1
 70
     1
102
RTVSPropertyOp2
 70
     1
102
RTVSPropertyOp3
 70
     1
102
RTVSPropertyOp4
 70
     1
102
RTVSPropertyOp5
 70
     1
102
RTVSPropertyOp6
 70
     1
102
RTVSPropertyOp7
 70
     1
102
RTVSPropertyOp8
 70
     1
102
RTVSPropertyOp9
 70
     1
102
RTVSPropertyOp10
 70
     1
102
RTVSPropertyOp11
 70
     1
102
RTVSPropertyOp12
 70
     1
102
RTVSPropertyOp13
 70
     1
102
RTVSPropertyOp14
 70
     1
102
RTVSPropertyOp15
 70
     1
102
RTVSPropertyOp16
 70
     1
102
RTVSPropertyOp17
 70
     1
102
RTVSPropertyOp18
 70
     1
102
RTVSPropertyOp19
 70
     1
102
RTVSPropertyOp20
 70
     1
102
RTVSPropertyOp21
 70
     1
102
RTVSPropertyOp22
 70
     1
102
RTVSPropertyOp23
 70
     1
102
RTVSPropertyOp24
 70
     1
102
RTVSPropertyOp25
 70
     1
102
RTVSPropertyOp26
 70
     1
102
RTVSPropertyOp27
 70
     1
  0
XRECORD
  5
1DAF
102
{ACAD_REACTORS
330
1DAE
102
}
330
1DAE
100
AcDbXrecord
280
     1
102
RTVSPropertyOp0
 70
     1
102
RTVSPropertyOp1
 70
     1
102
RTVSPropertyOp2
 70
     1
102
RTVSPropertyOp3
 70
     1
102
RTVSPropertyOp4
 70
     1
102
RTVSPropertyOp5
 70
     1
102
RTVSPropertyOp6
 70
     1
102
RTVSPropertyOp7
 70
     1
102
RTVSPropertyOp8
 70
     1
102
RTVSPropertyOp9
 70
     1
102
RTVSPropertyOp10
 70
     1
102
RTVSPropertyOp11
 70
     1
102
RTVSPropertyOp12
 70
     1
102
RTVSPropertyOp13
 70
     1
102
RTVSPropertyOp14
 70
     1
102
RTVSPropertyOp15
 70
     1
102
RTVSPropertyOp16
 70
     1
102
RTVSPropertyOp17
 70
     1
102
RTVSPropertyOp18
 70
     1
102
RTVSPropertyOp19
 70
     1
102
RTVSPropertyOp20
 70
     1
102
RTVSPropertyOp21
 70
     1
102
RTVSPropertyOp22
 70
     1
102
RTVSPropertyOp23
 70
     1
102
RTVSPropertyOp24
 70
     1
102
RTVSPropertyOp25
 70
     1
102
RTVSPropertyOp26
 70
     1
102
RTVSPropertyOp27
 70
     1
  0
XRECORD
  5
1DB3
102
{ACAD_REACTORS
330
1DB2
102
}
330
1DB2
100
AcDbXrecord
280
     1
102
RTVSPropertyOp0
 70
     1
102
RTVSPropertyOp1
 70
     1
102
RTVSPropertyOp2
 70
     1
102
RTVSPropertyOp3
 70
     1
102
RTVSPropertyOp4
 70
     1
102
RTVSPropertyOp5
 70
     1
102
RTVSPropertyOp6
 70
     1
102
RTVSPropertyOp7
 70
     1
102
RTVSPropertyOp8
 70
     1
102
RTVSPropertyOp9
 70
     1
102
RTVSPropertyOp10
 70
     1
102
RTVSPropertyOp11
 70
     1
102
RTVSPropertyOp12
 70
     1
102
RTVSPropertyOp13
 70
     1
102
RTVSPropertyOp14
 70
     1
102
RTVSPropertyOp15
 70
     1
102
RTVSPropertyOp16
 70
     1
102
RTVSPropertyOp17
 70
     1
102
RTVSPropertyOp18
 70
     1
102
RTVSPropertyOp19
 70
     1
102
RTVSPropertyOp20
 70
     1
102
RTVSPropertyOp21
 70
     1
102
RTVSPropertyOp22
 70
     1
102
RTVSPropertyOp23
 70
     1
102
RTVSPropertyOp24
 70
     1
102
RTVSPropertyOp25
 70
     1
102
RTVSPropertyOp26
 70
     1
102
RTVSPropertyOp27
 70
     1
  0
XRECORD
  5
1DC3
102
{ACAD_REACTORS
330
1DC2
102
}
330
1DC2
100
AcDbXrecord
280
     1
102
RTVSPropertyOp0
 70
     0
102
RTVSPropertyOp1
 70
     0
102
RTVSPropertyOp2
 70
     0
102
RTVSPropertyOp3
 70
     0
102
RTVSPropertyOp4
 70
     0
102
RTVSPropertyOp5
 70
     0
102
RTVSPropertyOp6
 70
     0
102
RTVSPropertyOp7
 70
     0
102
RTVSPropertyOp8
 70
     0
102
RTVSPropertyOp9
 70
     0
102
RTVSPropertyOp10
 70
     0
102
RTVSPropertyOp11
 70
     0
102
RTVSPropertyOp12
 70
     0
102
RTVSPropertyOp13
 70
     0
102
RTVSPropertyOp14
 70
     2
102
RTVSPropertyOp15
 70
     0
102
RTVSPropertyOp16
 70
     0
102
RTVSPropertyOp17
 70
     0
102
RTVSPropertyOp18
 70
     0
102
RTVSPropertyOp19
 70
     0
102
RTVSPropertyOp20
 70
     0
102
RTVSPropertyOp21
 70
     0
102
RTVSPropertyOp22
 70
     0
102
RTVSPropertyOp23
 70
     0
102
RTVSPropertyOp24
 70
     0
102
RTVSPropertyOp25
 70
     0
102
RTVSPropertyOp26
 70
     0
102
RTVSPropertyOp27
 70
     0
  0
XRECORD
  5
1DBB
102
{ACAD_REACTORS
330
1DBA
102
}
330
1DBA
100
AcDbXrecord
280
     1
102
RTVSPropertyOp0
 70
     1
102
RTVSPropertyOp1
 70
     1
102
RTVSPropertyOp2
 70
     1
102
RTVSPropertyOp3
 70
     1
102
RTVSPropertyOp4
 70
     1
102
RTVSPropertyOp5
 70
     1
102
RTVSPropertyOp6
 70
     1
102
RTVSPropertyOp7
 70
     1
102
RTVSPropertyOp8
 70
     1
102
RTVSPropertyOp9
 70
     1
102
RTVSPropertyOp10
 70
     1
102
RTVSPropertyOp11
 70
     1
102
RTVSPropertyOp12
 70
     1
102
RTVSPropertyOp13
 70
     1
102
RTVSPropertyOp14
 70
     1
102
RTVSPropertyOp15
 70
     1
102
RTVSPropertyOp16
 70
     1
102
RTVSPropertyOp17
 70
     1
102
RTVSPropertyOp18
 70
     1
102
RTVSPropertyOp19
 70
     1
102
RTVSPropertyOp20
 70
     1
102
RTVSPropertyOp21
 70
     1
102
RTVSPropertyOp22
 70
     1
102
RTVSPropertyOp23
 70
     1
102
RTVSPropertyOp24
 70
     1
102
RTVSPropertyOp25
 70
     1
102
RTVSPropertyOp26
 70
     1
102
RTVSPropertyOp27
 70
     1
  0
XRECORD
  5
1D9F
102
{ACAD_REACTORS
330
1D9E
102
}
330
1D9E
100
AcDbXrecord
280
     1
102
RTVSPropertyOp0
 70
     1
102
RTVSPropertyOp1
 70
     1
102
RTVSPropertyOp2
 70
     1
102
RTVSPropertyOp3
 70
     1
102
RTVSPropertyOp4
 70
     1
102
RTVSPropertyOp5
 70
     1
102
RTVSPropertyOp6
 70
     1
102
RTVSPropertyOp7
 70
     1
102
RTVSPropertyOp8
 70
     1
102
RTVSPropertyOp9
 70
     1
102
RTVSPropertyOp10
 70
     1
102
RTVSPropertyOp11
 70
     1
102
RTVSPropertyOp12
 70
     1
102
RTVSPropertyOp13
 70
     1
102
RTVSPropertyOp14
 70
     1
102
RTVSPropertyOp15
 70
     1
102
RTVSPropertyOp16
 70
     1
102
RTVSPropertyOp17
 70
     1
102
RTVSPropertyOp18
 70
     1
102
RTVSPropertyOp19
 70
     1
102
RTVSPropertyOp20
 70
     1
102
RTVSPropertyOp21
 70
     1
102
RTVSPropertyOp22
 70
     1
102
RTVSPropertyOp23
 70
     1
102
RTVSPropertyOp24
 70
     1
102
RTVSPropertyOp25
 70
     1
102
RTVSPropertyOp26
 70
     1
102
RTVSPropertyOp27
 70
     1
  0
XRECORD
  5
1DA1
102
{ACAD_REACTORS
330
1DA0
102
}
330
1DA0
100
AcDbXrecord
280
     1
102
RTVSPropertyOp0
 70
     1
102
RTVSPropertyOp1
 70
     1
102
RTVSPropertyOp2
 70
     1
102
RTVSPropertyOp3
 70
     1
102
RTVSPropertyOp4
 70
     1
102
RTVSPropertyOp5
 70
     1
102
RTVSPropertyOp6
 70
     1
102
RTVSPropertyOp7
 70
     1
102
RTVSPropertyOp8
 70
     1
102
RTVSPropertyOp9
 70
     1
102
RTVSPropertyOp10
 70
     1
102
RTVSPropertyOp11
 70
     1
102
RTVSPropertyOp12
 70
     1
102
RTVSPropertyOp13
 70
     1
102
RTVSPropertyOp14
 70
     1
102
RTVSPropertyOp15
 70
     1
102
RTVSPropertyOp16
 70
     1
102
RTVSPropertyOp17
 70
     1
102
RTVSPropertyOp18
 70
     1
102
RTVSPropertyOp19
 70
     1
102
RTVSPropertyOp20
 70
     1
102
RTVSPropertyOp21
 70
     1
102
RTVSPropertyOp22
 70
     1
102
RTVSPropertyOp23
 70
     1
102
RTVSPropertyOp24
 70
     1
102
RTVSPropertyOp25
 70
     1
102
RTVSPropertyOp26
 70
     1
102
RTVSPropertyOp27
 70
     1
  0
XRECORD
  5
1DA3
102
{ACAD_REACTORS
330
1DA2
102
}
330
1DA2
100
AcDbXrecord
280
     1
102
RTVSPropertyOp0
 70
     1
102
RTVSPropertyOp1
 70
     1
102
RTVSPropertyOp2
 70
     1
102
RTVSPropertyOp3
 70
     1
102
RTVSPropertyOp4
 70
     1
102
RTVSPropertyOp5
 70
     1
102
RTVSPropertyOp6
 70
     1
102
RTVSPropertyOp7
 70
     1
102
RTVSPropertyOp8
 70
     1
102
RTVSPropertyOp9
 70
     1
102
RTVSPropertyOp10
 70
     1
102
RTVSPropertyOp11
 70
     1
102
RTVSPropertyOp12
 70
     1
102
RTVSPropertyOp13
 70
     1
102
RTVSPropertyOp14
 70
     1
102
RTVSPropertyOp15
 70
     1
102
RTVSPropertyOp16
 70
     1
102
RTVSPropertyOp17
 70
     1
102
RTVSPropertyOp18
 70
     1
102
RTVSPropertyOp19
 70
     1
102
RTVSPropertyOp20
 70
     1
102
RTVSPropertyOp21
 70
     1
102
RTVSPropertyOp22
 70
     1
102
RTVSPropertyOp23
 70
     1
102
RTVSPropertyOp24
 70
     1
102
RTVSPropertyOp25
 70
     1
102
RTVSPropertyOp26
 70
     1
102
RTVSPropertyOp27
 70
     1
  0
XRECORD
  5
1DA5
102
{ACAD_REACTORS
330
1DA4
102
}
330
1DA4
100
AcDbXrecord
280
     1
102
RTVSPropertyOp0
 70
     1
102
RTVSPropertyOp1
 70
     1
102
RTVSPropertyOp2
 70
     1
102
RTVSPropertyOp3
 70
     1
102
RTVSPropertyOp4
 70
     1
102
RTVSPropertyOp5
 70
     1
102
RTVSPropertyOp6
 70
     1
102
RTVSPropertyOp7
 70
     1
102
RTVSPropertyOp8
 70
     1
102
RTVSPropertyOp9
 70
     1
102
RTVSPropertyOp10
 70
     1
102
RTVSPropertyOp11
 70
     1
102
RTVSPropertyOp12
 70
     1
102
RTVSPropertyOp13
 70
     1
102
RTVSPropertyOp14
 70
     1
102
RTVSPropertyOp15
 70
     1
102
RTVSPropertyOp16
 70
     1
102
RTVSPropertyOp17
 70
     1
102
RTVSPropertyOp18
 70
     1
102
RTVSPropertyOp19
 70
     1
102
RTVSPropertyOp20
 70
     1
102
RTVSPropertyOp21
 70
     1
102
RTVSPropertyOp22
 70
     1
102
RTVSPropertyOp23
 70
     1
102
RTVSPropertyOp24
 70
     1
102
RTVSPropertyOp25
 70
     1
102
RTVSPropertyOp26
 70
     1
102
RTVSPropertyOp27
 70
     1
  0
XRECORD
  5
1DBF
102
{ACAD_REACTORS
330
1DBE
102
}
330
1DBE
100
AcDbXrecord
280
     1
102
RTVSPropertyOp0
 70
     0
102
RTVSPropertyOp1
 70
     0
102
RTVSPropertyOp2
 70
     0
102
RTVSPropertyOp3
 70
     0
102
RTVSPropertyOp4
 70
     0
102
RTVSPropertyOp5
 70
     0
102
RTVSPropertyOp6
 70
     0
102
RTVSPropertyOp7
 70
     0
102
RTVSPropertyOp8
 70
     0
102
RTVSPropertyOp9
 70
     0
102
RTVSPropertyOp10
 70
     0
102
RTVSPropertyOp11
 70
     0
102
RTVSPropertyOp12
 70
     0
102
RTVSPropertyOp13
 70
     0
102
RTVSPropertyOp14
 70
     2
102
RTVSPropertyOp15
 70
     0
102
RTVSPropertyOp16
 70
     0
102
RTVSPropertyOp17
 70
     0
102
RTVSPropertyOp18
 70
     0
102
RTVSPropertyOp19
 70
     0
102
RTVSPropertyOp20
 70
     0
102
RTVSPropertyOp21
 70
     0
102
RTVSPropertyOp22
 70
     0
102
RTVSPropertyOp23
 70
     0
102
RTVSPropertyOp24
 70
     0
102
RTVSPropertyOp25
 70
     0
102
RTVSPropertyOp26
 70
     0
102
RTVSPropertyOp27
 70
     0
  0
XRECORD
  5
1DB9
102
{ACAD_REACTORS
330
1DB8
102
}
330
1DB8
100
AcDbXrecord
280
     1
102
RTVSPropertyOp0
 70
     1
102
RTVSPropertyOp1
 70
     1
102
RTVSPropertyOp2
 70
     1
102
RTVSPropertyOp3
 70
     1
102
RTVSPropertyOp4
 70
     1
102
RTVSPropertyOp5
 70
     1
102
RTVSPropertyOp6
 70
     1
102
RTVSPropertyOp7
 70
     1
102
RTVSPropertyOp8
 70
     1
102
RTVSPropertyOp9
 70
     1
102
RTVSPropertyOp10
 70
     1
102
RTVSPropertyOp11
 70
     1
102
RTVSPropertyOp12
 70
     1
102
RTVSPropertyOp13
 70
     1
102
RTVSPropertyOp14
 70
     1
102
RTVSPropertyOp15
 70
     1
102
RTVSPropertyOp16
 70
     1
102
RTVSPropertyOp17
 70
     1
102
RTVSPropertyOp18
 70
     1
102
RTVSPropertyOp19
 70
     1
102
RTVSPropertyOp20
 70
     1
102
RTVSPropertyOp21
 70
     1
102
RTVSPropertyOp22
 70
     1
102
RTVSPropertyOp23
 70
     1
102
RTVSPropertyOp24
 70
     1
102
RTVSPropertyOp25
 70
     1
102
RTVSPropertyOp26
 70
     1
102
RTVSPropertyOp27
 70
     1
  0
XRECORD
  5
1DC1
102
{ACAD_REACTORS
330
1DC0
102
}
330
1DC0
100
AcDbXrecord
280
     1
102
RTVSPropertyOp0
 70
     0
102
RTVSPropertyOp1
 70
     0
102
RTVSPropertyOp2
 70
     0
102
RTVSPropertyOp3
 70
     0
102
RTVSPropertyOp4
 70
     0
102
RTVSPropertyOp5
 70
     0
102
RTVSPropertyOp6
 70
     0
102
RTVSPropertyOp7
 70
     0
102
RTVSPropertyOp8
 70
     0
102
RTVSPropertyOp9
 70
     0
102
RTVSPropertyOp10
 70
     0
102
RTVSPropertyOp11
 70
     0
102
RTVSPropertyOp12
 70
     0
102
RTVSPropertyOp13
 70
     0
102
RTVSPropertyOp14
 70
     2
102
RTVSPropertyOp15
 70
     0
102
RTVSPropertyOp16
 70
     0
102
RTVSPropertyOp17
 70
     0
102
RTVSPropertyOp18
 70
     0
102
RTVSPropertyOp19
 70
     0
102
RTVSPropertyOp20
 70
     0
102
RTVSPropertyOp21
 70
     0
102
RTVSPropertyOp22
 70
     0
102
RTVSPropertyOp23
 70
     0
102
RTVSPropertyOp24
 70
     0
102
RTVSPropertyOp25
 70
     0
102
RTVSPropertyOp26
 70
     0
102
RTVSPropertyOp27
 70
     0
  0
XRECORD
  5
1DB1
102
{ACAD_REACTORS
330
1DB0
102
}
330
1DB0
100
AcDbXrecord
280
     1
102
RTVSPropertyOp0
 70
     1
102
RTVSPropertyOp1
 70
     1
102
RTVSPropertyOp2
 70
     1
102
RTVSPropertyOp3
 70
     1
102
RTVSPropertyOp4
 70
     1
102
RTVSPropertyOp5
 70
     1
102
RTVSPropertyOp6
 70
     1
102
RTVSPropertyOp7
 70
     1
102
RTVSPropertyOp8
 70
     1
102
RTVSPropertyOp9
 70
     1
102
RTVSPropertyOp10
 70
     1
102
RTVSPropertyOp11
 70
     1
102
RTVSPropertyOp12
 70
     1
102
RTVSPropertyOp13
 70
     1
102
RTVSPropertyOp14
 70
     1
102
RTVSPropertyOp15
 70
     1
102
RTVSPropertyOp16
 70
     1
102
RTVSPropertyOp17
 70
     1
102
RTVSPropertyOp18
 70
     1
102
RTVSPropertyOp19
 70
     1
102
RTVSPropertyOp20
 70
     1
102
RTVSPropertyOp21
 70
     1
102
RTVSPropertyOp22
 70
     1
102
RTVSPropertyOp23
 70
     1
102
RTVSPropertyOp24
 70
     1
102
RTVSPropertyOp25
 70
     1
102
RTVSPropertyOp26
 70
     1
102
RTVSPropertyOp27
 70
     1
  0
XRECORD
  5
1DB7
102
{ACAD_REACTORS
330
1DB6
102
}
330
1DB6
100
AcDbXrecord
280
     1
102
RTVSPropertyOp0
 70
     1
102
RTVSPropertyOp1
 70
     1
102
RTVSPropertyOp2
 70
     1
102
RTVSPropertyOp3
 70
     1
102
RTVSPropertyOp4
 70
     1
102
RTVSPropertyOp5
 70
     1
102
RTVSPropertyOp6
 70
     1
102
RTVSPropertyOp7
 70
     1
102
RTVSPropertyOp8
 70
     1
102
RTVSPropertyOp9
 70
     1
102
RTVSPropertyOp10
 70
     1
102
RTVSPropertyOp11
 70
     1
102
RTVSPropertyOp12
 70
     1
102
RTVSPropertyOp13
 70
     1
102
RTVSPropertyOp14
 70
     1
102
RTVSPropertyOp15
 70
     1
102
RTVSPropertyOp16
 70
     1
102
RTVSPropertyOp17
 70
     1
102
RTVSPropertyOp18
 70
     1
102
RTVSPropertyOp19
 70
     1
102
RTVSPropertyOp20
 70
     1
102
RTVSPropertyOp21
 70
     1
102
RTVSPropertyOp22
 70
     1
102
RTVSPropertyOp23
 70
     1
102
RTVSPropertyOp24
 70
     1
102
RTVSPropertyOp25
 70
     1
102
RTVSPropertyOp26
 70
     1
102
RTVSPropertyOp27
 70
     1
  0
ENDSEC
  0
EOF
